Dioses de Egipto (2016) Full 1080p Latino

701 vistas
1 estrella2 estrellas3 estrellas4 estrellas5 estrellas (Ninguna valoración todavía)
Cargando…

Información de Dioses de Egipto (2016) Full 1080p Latino

Datos de la película

  • Calidad: Full 1080p
  • Audio: Español Latino DTS 5.1 BLURAY - Ingles DTS 5.1 BLURAY
  • Subtitulos: Español Latino PGS - Ingles PGS
  • Resolución: 1920x1080p
  • Formato: MKV
  • Codec: H.264
  • Encoder: Dracarys
  • Mediainfo: Clic para Mostrar Datos Ver
  • Format                                   : Matroska
    Format version                           : Version 4 / Version 2
    File size                                : 7.15 GiB
    Duration                                 : 2 h 7 min
    Overall bit rate                         : 8 059 kb/s
    Movie name                               : CinemaniaHDD.com
    Encoded date                             : UTC 2018-05-16 02:18:14 / UTC 2018-05-15T03:20:25Z
    Writing application                      : mkvmerge v15.0.0 ('Duel with the Devil') 64-bit
    Writing library                          : libebml v1.3.5 + libmatroska v1.4.5 / Lavf57.7.2

    Video
    ID                                       : 1
    Format                                   : AVC
    Format/Info                              : Advanced Video Codec
    Format profile                           : High@L4.1
    Format settings                          : CABAC / 4 Ref Frames
    Format settings, CABAC                   : Yes
    Format settings, RefFrames               : 4 frames
    Codec ID                                 : V_MPEG4/ISO/AVC
    Duration                                 : 2 h 7 min
    Bit rate                                 : 5 635 kb/s
    Width                                    : 1 920 pixels
    Height                                   : 1 080 pixels
    Display aspect ratio                     : 16:9
    Frame rate mode                          : Constant
    Frame rate                               : 23.976 (24000/1001) FPS
    Color space                              : YUV
    Chroma subsampling                       : 4:2:0
    Bit depth                                : 8 bits
    Scan type                                : Progressive
    Bits/(Pixel*Frame)                       : 0.113
    Stream size                              : 5.00 GiB (70%)
    Title                                    : Dioses de Egipto (2016) Full 1080p Latino
    Writing library                          : x264 core 148 r2708 86b7198
    Encoding settings                        : cabac=1 / ref=4 / deblock=1:0:0 / analyse=0x3:0x133 / me=esa / subme=9 / psy=1 / psy_rd=1.00:0.00 / mixed_ref=1 / me_range=16 / chroma_me=1 / trellis=2 / 8x8dct=1 / cqm=0 / deadzone=21,11 / fast_pskip=1 / chroma_qp_offset=-2 / threads=34 / lookahead_threads=2 / sliced_threads=0 / nr=0 / decimate=1 / interlaced=0 / bluray_compat=0 / constrained_intra=0 / bframes=3 / b_pyramid=2 / b_adapt=2 / b_bias=0 / direct=3 / weightb=1 / open_gop=0 / weightp=2 / keyint=240 / keyint_min=24 / scenecut=40 / intra_refresh=0 / rc_lookahead=60 / rc=crf / mbtree=1 / crf=20.0 / qcomp=0.60 / qpmin=0 / qpmax=69 / qpstep=4 / vbv_maxrate=62500 / vbv_bufsize=78125 / crf_max=0.0 / nal_hrd=none / filler=0 / ip_ratio=1.40 / aq=1:1.00
    Language                                 : English
    Default                                  : Yes
    Forced                                   : No
    Color range                              : Limited
    Color primaries                          : BT.709
    Transfer characteristics                 : BT.709
    Matrix coefficients                      : BT.709
    Statistics Tags Issue                    : mkvmerge v15.0.0 ('Duel with the Devil') 64-bit 2018-05-16 02:18:14 / mkvmerge v15.0.0 ('Duel with the Devil') 64-bit 2018-05-16 02:18:14 / UTC 2018-05-15T03:20:25Z
    FromStats_BitRate                        : 5769562
    FromStats_Duration                       : 02:07:02.657000000
    FromStats_FrameCount                     : 182761
    FromStats_StreamSize                     : 5497424156

    Audio #1
    ID                                       : 2
    Format                                   : DTS
    Format/Info                              : Digital Theater Systems
    Mode                                     : 16
    Format settings, Endianness              : Big
    Codec ID                                 : A_DTS
    Duration                                 : 2 h 7 min
    Bit rate mode                            : Constant
    Bit rate                                 : 755 kb/s
    Channel(s)                               : 6 channels
    Channel positions                        : Front: L C R, Side: L R, LFE
    Sampling rate                            : 48.0 kHz
    Frame rate                               : 93.750 FPS (512 SPF)
    Bit depth                                : 24 bits
    Compression mode                         : Lossy
    Delay relative to video                  : 43 ms
    Stream size                              : 686 MiB (9%)
    Language                                 : Spanish
    Default                                  : Yes
    Forced                                   : No
    Statistics Tags Issue                    : mkvmerge v15.0.0 ('Duel with the Devil') 64-bit 2018-05-16 02:18:14 / mkvmerge v15.0.0 ('Duel with the Devil') 64-bit 2018-05-16 02:18:14 / UTC 2018-05-15T03:20:25Z
    FromStats_BitRate                        : 754499
    FromStats_Duration                       : 02:07:02.667000000
    FromStats_FrameCount                     : 714625
    FromStats_StreamSize                     : 718912750

    Audio #2
    ID                                       : 3
    Format                                   : DTS
    Format/Info                              : Digital Theater Systems
    Mode                                     : 16
    Format settings, Endianness              : Big
    Codec ID                                 : A_DTS
    Duration                                 : 2 h 7 min
    Bit rate mode                            : Constant
    Bit rate                                 : 1 509 kb/s
    Channel(s)                               : 6 channels
    Channel positions                        : Front: L C R, Side: L R, LFE
    Sampling rate                            : 48.0 kHz
    Frame rate                               : 93.750 FPS (512 SPF)
    Bit depth                                : 24 bits
    Compression mode                         : Lossy
    Delay relative to video                  : 53 ms
    Stream size                              : 1.34 GiB (19%)
    Language                                 : English
    Default                                  : No
    Forced                                   : No
    Statistics Tags Issue                    : mkvmerge v15.0.0 ('Duel with the Devil') 64-bit 2018-05-16 02:18:14 / mkvmerge v15.0.0 ('Duel with the Devil') 64-bit 2018-05-16 02:18:14 / UTC 2018-05-15T03:20:25Z
    FromStats_BitRate                        : 1508999
    FromStats_Duration                       : 02:07:02.657000000
    FromStats_FrameCount                     : 714624
    FromStats_StreamSize                     : 1437823488

    Text #1
    ID                                       : 4
    Format                                   : PGS
    Muxing mode                              : zlib
    Codec ID                                 : S_HDMV/PGS
    Codec ID/Info                            : Picture based subtitle format used on BDs/HD-DVDs
    Language                                 : English
    Default                                  : No
    Forced                                   : No
    Statistics Tags Issue                    : mkvmerge v15.0.0 ('Duel with the Devil') 64-bit 2018-05-16 02:18:14 / mkvmerge v15.0.0 ('Duel with the Devil') 64-bit 2018-05-16 02:18:14 / UTC 2018-05-15T03:20:25Z
    FromStats_BitRate                        : 29064
    FromStats_Duration                       : 01:55:28.810000000
    FromStats_FrameCount                     : 2451
    FromStats_StreamSize                     : 25173158

    Text #2
    ID                                       : 5
    Format                                   : PGS
    Muxing mode                              : zlib
    Codec ID                                 : S_HDMV/PGS
    Codec ID/Info                            : Picture based subtitle format used on BDs/HD-DVDs
    Language                                 : Spanish
    Default                                  : No
    Forced                                   : No
    Statistics Tags Issue                    : mkvmerge v15.0.0 ('Duel with the Devil') 64-bit 2018-05-16 02:18:14 / mkvmerge v15.0.0 ('Duel with the Devil') 64-bit 2018-05-16 02:18:14 / UTC 2018-05-15T03:20:25Z
    FromStats_BitRate                        : 29074
    FromStats_Duration                       : 01:55:28.726000000
    FromStats_FrameCount                     : 2574
    FromStats_StreamSize                     : 25181243

    Menu
    00:00:00.000                             : :Chapter 1
    00:07:08.011                             : :Chapter 2
    00:18:07.545                             : :Chapter 3
    00:23:47.259                             : :Chapter 4
    00:30:11.768                             : :Chapter 5
    00:39:16.521                             : :Chapter 6
    00:46:30.621                             : :Chapter 7
    00:54:46.074                             : :Chapter 8
    01:01:14.171                             : :Chapter 9
    01:09:29.082                             : :Chapter 10
    01:18:03.387                             : :Chapter 11
    01:28:18.293                             : :Chapter 12
    01:36:12.100                             : :Chapter 13
    01:39:14.699                             : :Chapter 14
    01:46:58.370                             : :Chapter 15
    01:52:11.058                             : :Chapter 16

  • Peso: 7.15 GiB

Sinopsis

La supervivencia de la humanidad pende de un hilo, pero Beck, un héroe mortal, está decidido a salvar el mundo y a rescatar a su verdadero amor. Para conseguirlo busca la ayuda del poderoso dios Horus, con el que establecerá una alianza contra Set, el despiadado dios de la oscuridad que ha usurpado el trono de Egipto, sumiendo al país en el caos. Para ganar la batalla contra Set y sus secuaces tendrán que someterse a terribles pruebas de valentía y sacrificio.

Ficha técnica

Video trailer de la película

Enlaces de descarga

Rip de Bluray

Descargar Dioses de Egipto (2016) Full 1080p Latino




Aportes de DPeliculasHDmega la pass es:dpeliculashdmega.org Aportes de CinemaniaHD la pass es:cinemaniahdd.com

Películas relacionadas

  • Lady Bird (2017) Full 1080p Latino

    2017
    Lady Bird (2017) Full 1080p Latino

    5.0 1h 34m 2017

    Sacramento, California, año 2002. Una joven llamada Christine McPherson (Saoirse Ronan), apodada como...

    Director: Jonas Spaccarotelli

    Género: Comedia

    Actores: Tracy Letts

  • Plan de escape (2013) Full 1080p Latino

    2013
    Plan de escape (2013) Full 1080p Latino

    3.0 1h 56m 2013

    El experto en seguridad Ray Breslin prueba sus teorías poco convencionales en diseño de prisiones elaborando...

    Director: Mikael Håfström

    Género: Acción

    Actores: Vinnie Jones

Comentarios 0