Destino final 5 (2011) Full 1080p Latino

828 vistas
1 estrella2 estrellas3 estrellas4 estrellas5 estrellas (1 votos, promedio: 5,00 de 5)
Cargando…

Información de Destino final 5 (2011) Full 1080p Latino

Datos de la película

  • Calidad: Full 1080p
  • Audio: Español Latino AC3 5.1 BLURAY - Ingles DTS 5.1 BLURAY
  • Subtitulos: Español Latino PGS - Ingles PGS
  • Resolución: 1920X1080
  • Formato: MKV
  • Codec: H.264
  • Encoder: Dpelis
  • Mediainfo: Clic para Mostrar Datos Ver
  • Format                                   : Matroska
    Format version                           : Version 4 / Version 2
    File size                                : 3.79 GiB
    Duration                                 : 1 h 31 min
    Overall bit rate                         : 5 910 kb/s
    Movie name                               : dpeliculashdmega.org
    Encoded date                             : UTC 2017-11-13 04:13:50 / UTC 2017-11-13T01:43:55Z
    Writing application                      : mkvmerge v15.0.0 ('Duel with the Devil') 64-bit
    Writing library                          : libebml v1.3.5 + libmatroska v1.4.5 / Lavf57.7.2

    Video
    ID                                       : 1
    Format                                   : AVC
    Format/Info                              : Advanced Video Codec
    Format profile                           : High@L4.1
    Format settings                          : CABAC / 4 Ref Frames
    Format settings, CABAC                   : Yes
    Format settings, RefFrames               : 4 frames
    Codec ID                                 : V_MPEG4/ISO/AVC
    Duration                                 : 1 h 31 min
    Bit rate                                 : 3 643 kb/s
    Width                                    : 1 920 pixels
    Height                                   : 1 080 pixels
    Display aspect ratio                     : 16:9
    Frame rate mode                          : Constant
    Frame rate                               : 23.976 (24000/1001) FPS
    Color space                              : YUV
    Chroma subsampling                       : 4:2:0
    Bit depth                                : 8 bits
    Scan type                                : Progressive
    Bits/(Pixel*Frame)                       : 0.073
    Stream size                              : 2.34 GiB (62%)
    Title                                    : Destino final 5 (2011) Full 1080p Latino
    Writing library                          : x264 core 148 r2708 86b7198
    Encoding settings                        : cabac=1 / ref=4 / deblock=1:0:0 / analyse=0x3:0x133 / me=esa / subme=10 / psy=1 / psy_rd=1.00:0.00 / mixed_ref=1 / me_range=24 / chroma_me=1 / trellis=2 / 8x8dct=1 / cqm=0 / deadzone=21,11 / fast_pskip=1 / chroma_qp_offset=-2 / threads=34 / lookahead_threads=5 / sliced_threads=0 / nr=0 / decimate=1 / interlaced=0 / bluray_compat=0 / constrained_intra=0 / bframes=8 / b_pyramid=2 / b_adapt=2 / b_bias=0 / direct=3 / weightb=1 / open_gop=0 / weightp=2 / keyint=240 / keyint_min=24 / scenecut=40 / intra_refresh=0 / rc_lookahead=60 / rc=crf / mbtree=1 / crf=20.0 / qcomp=0.60 / qpmin=0 / qpmax=69 / qpstep=4 / vbv_maxrate=62500 / vbv_bufsize=78125 / crf_max=0.0 / nal_hrd=none / filler=0 / ip_ratio=1.40 / aq=1:1.00
    Language                                 : English
    Default                                  : Yes
    Forced                                   : No
    Color range                              : Limited
    Color primaries                          : BT.709
    Transfer characteristics                 : BT.709
    Matrix coefficients                      : BT.709
    Statistics Tags Issue                    : mkvmerge v15.0.0 ('Duel with the Devil') 64-bit 2017-11-13 04:13:50 / mkvmerge v15.0.0 ('Duel with the Devil') 64-bit 2017-11-13 04:13:50 / UTC 2017-11-13T01:43:55Z
    FromStats_BitRate                        : 3734116
    FromStats_Duration                       : 01:31:49.880000000
    FromStats_FrameCount                     : 132105
    FromStats_StreamSize                     : 2571816568

    Audio #1
    ID                                       : 2
    Format                                   : AC-3
    Format/Info                              : Audio Coding 3
    Format settings, Endianness              : Big
    Codec ID                                 : A_AC3
    Duration                                 : 1 h 31 min
    Bit rate mode                            : Constant
    Bit rate                                 : 640 kb/s
    Channel(s)                               : 6 channels
    Channel positions                        : Front: L C R, Side: L R, LFE
    Sampling rate                            : 48.0 kHz
    Frame rate                               : 31.250 FPS (1536 SPF)
    Bit depth                                : 16 bits
    Compression mode                         : Lossy
    Stream size                              : 420 MiB (11%)
    Title                                    : Latino-AC3
    Language                                 : Spanish
    Service kind                             : Complete Main
    Default                                  : Yes
    Forced                                   : No
    Statistics Tags Issue                    : mkvmerge v15.0.0 ('Duel with the Devil') 64-bit 2017-11-13 04:13:50 / mkvmerge v15.0.0 ('Duel with the Devil') 64-bit 2017-11-13 04:13:50 / UTC 2017-11-13T01:43:55Z
    FromStats_BitRate                        : 640000
    FromStats_Duration                       : 01:31:50.912000000
    FromStats_FrameCount                     : 172216
    FromStats_StreamSize                     : 440872960

    Audio #2
    ID                                       : 3
    Format                                   : DTS
    Format/Info                              : Digital Theater Systems
    Mode                                     : 16
    Format settings, Endianness              : Big
    Codec ID                                 : A_DTS
    Duration                                 : 1 h 31 min
    Bit rate mode                            : Constant
    Bit rate                                 : 1 509 kb/s
    Channel(s)                               : 6 channels
    Channel positions                        : Front: L C R, Side: L R, LFE
    Sampling rate                            : 48.0 kHz
    Frame rate                               : 93.750 FPS (512 SPF)
    Bit depth                                : 24 bits
    Compression mode                         : Lossy
    Stream size                              : 991 MiB (26%)
    Title                                    : Ingles-DTS
    Language                                 : English
    Default                                  : No
    Forced                                   : No
    Statistics Tags Issue                    : mkvmerge v15.0.0 ('Duel with the Devil') 64-bit 2017-11-13 04:13:50 / mkvmerge v15.0.0 ('Duel with the Devil') 64-bit 2017-11-13 04:13:50 / UTC 2017-11-13T01:43:55Z
    FromStats_BitRate                        : 1508999
    FromStats_Duration                       : 01:31:50.891000000
    FromStats_FrameCount                     : 516646
    FromStats_StreamSize                     : 1039491752

    Text #1
    ID                                       : 4
    Format                                   : PGS
    Muxing mode                              : zlib
    Codec ID                                 : S_HDMV/PGS
    Codec ID/Info                            : Picture based subtitle format used on BDs/HD-DVDs
    Title                                    : PGS-Forzados
    Language                                 : Spanish
    Default                                  : Yes
    Forced                                   : No
    Statistics Tags Issue                    : mkvmerge v15.0.0 ('Duel with the Devil') 64-bit 2017-11-13 04:13:50 / mkvmerge v15.0.0 ('Duel with the Devil') 64-bit 2017-11-13 04:13:50 / UTC 2017-11-13T01:43:55Z
    FromStats_BitRate                        : 1200
    FromStats_Duration                       : 01:26:30.643000000
    FromStats_FrameCount                     : 100
    FromStats_StreamSize                     : 778649

    Text #2
    ID                                       : 5
    Format                                   : PGS
    Muxing mode                              : zlib
    Codec ID                                 : S_HDMV/PGS
    Codec ID/Info                            : Picture based subtitle format used on BDs/HD-DVDs
    Title                                    : PGS
    Language                                 : Spanish
    Default                                  : No
    Forced                                   : No
    Statistics Tags Issue                    : mkvmerge v15.0.0 ('Duel with the Devil') 64-bit 2017-11-13 04:13:50 / mkvmerge v15.0.0 ('Duel with the Devil') 64-bit 2017-11-13 04:13:50 / UTC 2017-11-13T01:43:55Z
    FromStats_BitRate                        : 24378
    FromStats_Duration                       : 01:31:07.462000000
    FromStats_FrameCount                     : 2072
    FromStats_StreamSize                     : 16661040

    Text #3
    ID                                       : 6
    Format                                   : PGS
    Muxing mode                              : zlib
    Codec ID                                 : S_HDMV/PGS
    Codec ID/Info                            : Picture based subtitle format used on BDs/HD-DVDs
    Title                                    : PGS
    Language                                 : English
    Default                                  : No
    Forced                                   : No
    Statistics Tags Issue                    : mkvmerge v15.0.0 ('Duel with the Devil') 64-bit 2017-11-13 04:13:50 / mkvmerge v15.0.0 ('Duel with the Devil') 64-bit 2017-11-13 04:13:50 / UTC 2017-11-13T01:43:55Z
    FromStats_BitRate                        : 29649
    FromStats_Duration                       : 01:27:57.480000000
    FromStats_FrameCount                     : 2278
    FromStats_StreamSize                     : 19559371

    Menu
    00:00:00.000                             : :00:00:00.000
    00:09:51.341                             : :00:09:51.340
    00:20:22.763                             : :00:20:22.763
    00:30:36.543                             : :00:30:36.543
    00:40:56.996                             : :00:40:56.996
    00:51:19.076                             : :00:51:19.076
    01:00:55.777                             : :01:00:55.777
    01:09:02.847                             : :01:09:02.847
    01:22:35.576                             : :01:22:35.575
    01:26:23.303                             : :01:26:23.303

  • Peso: 3.79 GiB

Sinopsis

Sam Lawton tiene una premonición sobre la destrucción de un puente colgante que causaría su muerte y la de otras personas. La visión se hace realidad, pero Sam se las arregla para salvarse a sí mismo y a algunos otros de la catastrófica tragedia. Sin embargo, Sam y su novia Molly descubren que no están realmente a salvo: la muerte los persigue a ellos y a los que sobrevivieron al horrible accidente… Quinta entrega de la popular serie de terror “Destino final”.

Ficha técnica

Video trailer de la película

Enlaces de descarga

Rip de Bluray

Descargar Destino final 5 (2011) Full 1080p Latino




Aportes de DPeliculasHDmega la pass es:dpeliculashdmega.org Aportes de CinemaniaHD la pass es:cinemaniahdd.com

Películas relacionadas

  • Isle of the Dead (2016) WEB-DL 1080p Latino

    2016
    Isle of the Dead (2016) WEB-DL 1080p Latino

    5.0 1 h 27 min 2016

    Extraños atrapados en una isla aislada luchan por sobrevivir contra hordas de muertos.     Latino...

    Director: Nick Lyon

    Género: Terror

    Actores: Todd Cattell

  • Si solo pudiera imaginar (2018) Full 1080p Latino

    2018
    Si solo pudiera imaginar (2018) Full 1080p Latino

    5.0 1 h 50 min 2018

    La historia real de la aclamada canción "I Can Only Imagine", la canción cristiana contemporánea más...

    Director: Jon Erwin

    Género: Drama

    Actores: Trace Adkins

  • El Justiciero (2014) Full 1080p Latino

    2014
    El Justiciero (2014) Full 1080p Latino

    4.0 2 h 12 min 2014

    Robert McCall, un antiguo agente de la CIA que lleva ahora una vida tranquila, abandona su retiro para...

    Director: Deirdre Horgan

    Género: Acción

    Actores: Yan Dron

Comentarios 5
  • Jonna - 21 noviembre, 2017

    Otra SAGA completada muchas gracias, cuando tenga tiempo las vuelvo a ver como se debe 🙂

  • rodrigo - 13 noviembre, 2017

    no puedo ingresar a los enlase no me abre me abre enlase de mascotas http://www.sobremascotas.info/

    • Dpelis2 pelis2 - 16 noviembre, 2017

      Prueba con la extensión Hola en tu navegador y cambia la ip

  • ToRukMaTo - 13 noviembre, 2017

    Me Lleve Las 5 Movies Amigo…Gracias Camarada!!

    • Dpelis2 pelis2 - 13 noviembre, 2017

      Genial amigo. De nada!