Capitán América y el Soldado del Invierno (2014) Full 1080p Latino

1.697 vistas
1 estrella2 estrellas3 estrellas4 estrellas5 estrellas (4 votos, promedio: 3,00 de 5)
Cargando…

Información de Capitán América y el Soldado del Invierno (2014) Full 1080p Latino

Datos de la película

  • Calidad: Full 1080p
  • Audio: Español Latino AC3 5.1 BLURAY - Ingles DTS 5.1 BLURAY
  • Subtitulos: Español Latino PGS - Ingles PGS
  • Resolución: 1920x1080p
  • Formato: MKV
  • Codec: H.264
  • Encoder: Dracarys
  • Mediainfo: Clic para Mostrar Datos Ver
  • Format                                   : Matroska
    Format version                           : Version 4 / Version 2
    File size                                : 6.07 GiB
    Duration                                 : 2 h 15 min
    Overall bit rate                         : 6 395 kb/s
    Movie name                               : CinemaniaHDD.com
    Encoded date                             : UTC 2018-04-12 19:00:25 / UTC 2018-04-11T10:56:09Z
    Writing application                      : mkvmerge v15.0.0 ('Duel with the Devil') 64-bit
    Writing library                          : libebml v1.3.5 + libmatroska v1.4.5 / Lavf57.7.2

    Video
    ID                                       : 1
    Format                                   : AVC
    Format/Info                              : Advanced Video Codec
    Format profile                           : High@L4.1
    Format settings                          : CABAC / 4 Ref Frames
    Format settings, CABAC                   : Yes
    Format settings, RefFrames               : 4 frames
    Codec ID                                 : V_MPEG4/ISO/AVC
    Duration                                 : 2 h 15 min
    Bit rate                                 : 4 119 kb/s
    Width                                    : 1 920 pixels
    Height                                   : 1 080 pixels
    Display aspect ratio                     : 16:9
    Frame rate mode                          : Constant
    Frame rate                               : 23.976 (24000/1001) FPS
    Color space                              : YUV
    Chroma subsampling                       : 4:2:0
    Bit depth                                : 8 bits
    Scan type                                : Progressive
    Bits/(Pixel*Frame)                       : 0.083
    Stream size                              : 3.91 GiB (64%)
    Title                                    : Capitán América y el Soldado del Invierno (2014) Full 1080p Latino
    Writing library                          : x264 core 148 r2708 86b7198
    Encoding settings                        : cabac=1 / ref=4 / deblock=1:0:0 / analyse=0x3:0x133 / me=esa / subme=9 / psy=1 / psy_rd=1.00:0.00 / mixed_ref=1 / me_range=16 / chroma_me=1 / trellis=2 / 8x8dct=1 / cqm=0 / deadzone=21,11 / fast_pskip=1 / chroma_qp_offset=-2 / threads=34 / lookahead_threads=2 / sliced_threads=0 / nr=0 / decimate=1 / interlaced=0 / bluray_compat=0 / constrained_intra=0 / bframes=3 / b_pyramid=2 / b_adapt=2 / b_bias=0 / direct=3 / weightb=1 / open_gop=0 / weightp=2 / keyint=240 / keyint_min=24 / scenecut=40 / intra_refresh=0 / rc_lookahead=60 / rc=crf / mbtree=1 / crf=20.0 / qcomp=0.60 / qpmin=0 / qpmax=69 / qpstep=4 / vbv_maxrate=62500 / vbv_bufsize=78125 / crf_max=0.0 / nal_hrd=none / filler=0 / ip_ratio=1.40 / aq=1:1.00
    Language                                 : English
    Default                                  : Yes
    Forced                                   : No
    Color range                              : Limited
    Color primaries                          : BT.709
    Transfer characteristics                 : BT.709
    Matrix coefficients                      : BT.709
    Statistics Tags Issue                    : mkvmerge v15.0.0 ('Duel with the Devil') 64-bit 2018-04-12 19:00:25 / mkvmerge v15.0.0 ('Duel with the Devil') 64-bit 2018-04-12 19:00:25 / UTC 2018-04-11T10:56:09Z
    FromStats_BitRate                        : 4223345
    FromStats_Duration                       : 02:15:54.188000000
    FromStats_FrameCount                     : 195505
    FromStats_StreamSize                     : 4304744553

    Audio #1
    ID                                       : 2
    Format                                   : AC-3
    Format/Info                              : Audio Coding 3
    Format settings, Endianness              : Big
    Codec ID                                 : A_AC3
    Duration                                 : 2 h 15 min
    Bit rate mode                            : Constant
    Bit rate                                 : 640 kb/s
    Channel(s)                               : 6 channels
    Channel positions                        : Front: L C R, Side: L R, LFE
    Sampling rate                            : 48.0 kHz
    Frame rate                               : 31.250 FPS (1536 SPF)
    Bit depth                                : 16 bits
    Compression mode                         : Lossy
    Stream size                              : 622 MiB (10%)
    Language                                 : Spanish
    Service kind                             : Complete Main
    Default                                  : Yes
    Forced                                   : No
    Statistics Tags Issue                    : mkvmerge v15.0.0 ('Duel with the Devil') 64-bit 2018-04-12 19:00:25 / mkvmerge v15.0.0 ('Duel with the Devil') 64-bit 2018-04-12 19:00:25 / UTC 2018-04-11T10:56:09Z
    FromStats_BitRate                        : 640000
    FromStats_Duration                       : 02:15:54.208000000
    FromStats_FrameCount                     : 254819
    FromStats_StreamSize                     : 652336640

    Audio #2
    ID                                       : 3
    Format                                   : DTS
    Format/Info                              : Digital Theater Systems
    Mode                                     : 16
    Format settings, Endianness              : Big
    Codec ID                                 : A_DTS
    Duration                                 : 2 h 15 min
    Bit rate mode                            : Constant
    Bit rate                                 : 1 509 kb/s
    Channel(s)                               : 6 channels
    Channel positions                        : Front: L C R, Side: L R, LFE
    Sampling rate                            : 48.0 kHz
    Frame rate                               : 93.750 FPS (512 SPF)
    Bit depth                                : 24 bits
    Compression mode                         : Lossy
    Stream size                              : 1.43 GiB (24%)
    Language                                 : English
    Default                                  : No
    Forced                                   : No
    Statistics Tags Issue                    : mkvmerge v15.0.0 ('Duel with the Devil') 64-bit 2018-04-12 19:00:25 / mkvmerge v15.0.0 ('Duel with the Devil') 64-bit 2018-04-12 19:00:25 / UTC 2018-04-11T10:56:09Z
    FromStats_BitRate                        : 1508999
    FromStats_Duration                       : 02:15:54.187000000
    FromStats_FrameCount                     : 764455
    FromStats_StreamSize                     : 1538083460

    Text #1
    ID                                       : 4
    Format                                   : PGS
    Muxing mode                              : zlib
    Codec ID                                 : S_HDMV/PGS
    Codec ID/Info                            : Picture based subtitle format used on BDs/HD-DVDs
    Title                                    : Ingles
    Language                                 : English
    Default                                  : No
    Forced                                   : No
    Statistics Tags Issue                    : mkvmerge v15.0.0 ('Duel with the Devil') 64-bit 2018-04-12 19:00:25 / mkvmerge v15.0.0 ('Duel with the Devil') 64-bit 2018-04-12 19:00:25 / UTC 2018-04-11T10:56:09Z
    FromStats_BitRate                        : 34365
    FromStats_Duration                       : 02:08:53.767000000
    FromStats_FrameCount                     : 3300
    FromStats_StreamSize                     : 33221824

    Text #2
    ID                                       : 5
    Format                                   : PGS
    Muxing mode                              : zlib
    Codec ID                                 : S_HDMV/PGS
    Codec ID/Info                            : Picture based subtitle format used on BDs/HD-DVDs
    Title                                    : Completos Latino
    Language                                 : Spanish
    Default                                  : No
    Forced                                   : No
    Statistics Tags Issue                    : mkvmerge v15.0.0 ('Duel with the Devil') 64-bit 2018-04-12 19:00:25 / mkvmerge v15.0.0 ('Duel with the Devil') 64-bit 2018-04-12 19:00:25 / UTC 2018-04-11T10:56:09Z
    FromStats_BitRate                        : 31495
    FromStats_Duration                       : 02:14:59.341000000
    FromStats_FrameCount                     : 3096
    FromStats_StreamSize                     : 31887032

    Menu
    00:00:00.000                             : :Chapter 1
    00:03:28.667                             : :Chapter 2
    00:13:31.728                             : :Chapter 3
    00:17:57.868                             : :Chapter 4
    00:22:25.302                             : :Chapter 5
    00:33:20.415                             : :Chapter 6
    00:41:27.276                             : :Chapter 7
    00:51:37.303                             : :Chapter 8
    00:58:23.959                             : :Chapter 9
    01:07:40.348                             : :Chapter 10
    01:16:22.203                             : :Chapter 11
    01:24:43.078                             : :Chapter 12
    01:32:17.699                             : :Chapter 13
    01:37:06.612                             : :Chapter 14
    01:49:13.088                             : :Chapter 15
    01:55:03.730                             : :Chapter 16
    02:01:11.055                             : :Chapter 17
    02:06:22.241                             : :Chapter 18

  • Peso: 6.07 GiB

Sinopsis

Mientras que Capitán America: El primer vengador nos sumergía en los primeros años del universo Marvel a través de la traslación del legendario cómic a la gran pantalla, ahora el héroe regresa con Capitán América: El soldado del invierno. Esta historia se desarrollo en la actualidad y tiene como protagonistas a Chris Evans, Samuel L. Jackson y Scarlett Johansson, entre otros. La trama de la historia sigue girando alrededor de Steve Rogers, que mantiene su alianza con Nick Furia y con la agencia secreta SHIELD, e intenta, además involucrarse en el mundo moderno.

Ficha técnica

Video trailer de la película

Enlaces de descarga

Rip de Bluray

Descargar Capitán América y el Soldado del Invierno (2014) Full 1080p Latino




Aportes de DPeliculasHDmega la pass es:dpeliculashdmega.org Aportes de CinemaniaHD la pass es:cinemaniahdd.com

Películas relacionadas

  • Si solo pudiera imaginar (2018) Full 1080p Latino

    2018
    Si solo pudiera imaginar (2018) Full 1080p Latino

    5.0 1 h 50 min 2018

    La historia real de la aclamada canción "I Can Only Imagine", la canción cristiana contemporánea más...

    Director: Jon Erwin

    Género: Drama

    Actores: Trace Adkins

  • El Justiciero (2014) Full 1080p Latino

    2014
    El Justiciero (2014) Full 1080p Latino

    4.0 2 h 12 min 2014

    Robert McCall, un antiguo agente de la CIA que lleva ahora una vida tranquila, abandona su retiro para...

    Director: Deirdre Horgan

    Género: Acción

    Actores: Yan Dron

  • James Bond Live and Let Die (1973) Full 1080p Latino

    1973
    James Bond Live and Let Die (1973) Full 1080p Latino

    0.0 2 h 1 min 1973

    En tan sólo veinticuatro horas, tres agentes del servicio secreto británico que investigaban una red...

    Director: Guy Hamilton

    Género: Acción

    Actores: Yaphet Kotto

Comentarios 1
  • ocpgaiden - 13 abril, 2018

    la mejor pagina, gracias por la movie