Capitán América Civil War (2016) Full 1080p Latino

2.615 vistas
1 estrella2 estrellas3 estrellas4 estrellas5 estrellas (5 votos, promedio: 3,40 de 5)
Cargando…

Información de Capitán América Civil War (2016) Full 1080p Latino

Datos de la película

  • Calidad: Full 1080p
  • Audio: Español Latino AC3 5.1 BLURAY - Ingles DTS 5.1 BLURAY
  • Subtitulos: Español Latino PGS - Ingles PGS
  • Resolución: 1920x1080p
  • Formato: MKV
  • Codec: H.264
  • Encoder: Dracarys
  • Mediainfo: Clic para Mostrar Datos Ver
  • Format                                   : Matroska
    Format version                           : Version 4 / Version 2
    File size                                : 6.24 GiB
    Duration                                 : 2 h 27 min
    Overall bit rate                         : 6 044 kb/s
    Movie name                               : CinemaniaHDD.com
    Encoded date                             : UTC 2018-04-12 18:44:21 / UTC 2018-04-11T20:30:35Z
    Writing application                      : mkvmerge v15.0.0 ('Duel with the Devil') 64-bit
    Writing library                          : libebml v1.3.5 + libmatroska v1.4.5 / Lavf57.7.2

    Video
    ID                                       : 1
    Format                                   : AVC
    Format/Info                              : Advanced Video Codec
    Format profile                           : High@L4.1
    Format settings                          : CABAC / 4 Ref Frames
    Format settings, CABAC                   : Yes
    Format settings, RefFrames               : 4 frames
    Codec ID                                 : V_MPEG4/ISO/AVC
    Duration                                 : 2 h 27 min
    Bit rate                                 : 3 775 kb/s
    Width                                    : 1 920 pixels
    Height                                   : 1 080 pixels
    Display aspect ratio                     : 16:9
    Frame rate mode                          : Constant
    Frame rate                               : 23.976 (24000/1001) FPS
    Color space                              : YUV
    Chroma subsampling                       : 4:2:0
    Bit depth                                : 8 bits
    Scan type                                : Progressive
    Bits/(Pixel*Frame)                       : 0.076
    Stream size                              : 3.89 GiB (62%)
    Title                                    : Capitán América Civil War (2016) Full 1080p Latino
    Writing library                          : x264 core 148 r2708 86b7198
    Encoding settings                        : cabac=1 / ref=4 / deblock=1:0:0 / analyse=0x3:0x133 / me=esa / subme=9 / psy=1 / psy_rd=1.00:0.00 / mixed_ref=1 / me_range=16 / chroma_me=1 / trellis=2 / 8x8dct=1 / cqm=0 / deadzone=21,11 / fast_pskip=1 / chroma_qp_offset=-2 / threads=34 / lookahead_threads=2 / sliced_threads=0 / nr=0 / decimate=1 / interlaced=0 / bluray_compat=0 / constrained_intra=0 / bframes=3 / b_pyramid=2 / b_adapt=2 / b_bias=0 / direct=3 / weightb=1 / open_gop=0 / weightp=2 / keyint=240 / keyint_min=24 / scenecut=40 / intra_refresh=0 / rc_lookahead=60 / rc=crf / mbtree=1 / crf=20.0 / qcomp=0.60 / qpmin=0 / qpmax=69 / qpstep=4 / vbv_maxrate=62500 / vbv_bufsize=78125 / crf_max=0.0 / nal_hrd=none / filler=0 / ip_ratio=1.40 / aq=1:1.00
    Language                                 : English
    Default                                  : Yes
    Forced                                   : No
    Color range                              : Limited
    Color primaries                          : BT.709
    Transfer characteristics                 : BT.709
    Matrix coefficients                      : BT.709
    Statistics Tags Issue                    : mkvmerge v15.0.0 ('Duel with the Devil') 64-bit 2018-04-12 18:44:21 / mkvmerge v15.0.0 ('Duel with the Devil') 64-bit 2018-04-12 18:44:21 / UTC 2018-04-11T20:30:35Z
    FromStats_BitRate                        : 3871806
    FromStats_Duration                       : 02:27:41.937000000
    FromStats_FrameCount                     : 212474
    FromStats_StreamSize                     : 4288963688

    Audio #1
    ID                                       : 2
    Format                                   : AC-3
    Format/Info                              : Audio Coding 3
    Format settings, Endianness              : Big
    Codec ID                                 : A_AC3
    Duration                                 : 2 h 27 min
    Bit rate mode                            : Constant
    Bit rate                                 : 640 kb/s
    Channel(s)                               : 6 channels
    Channel positions                        : Front: L C R, Side: L R, LFE
    Sampling rate                            : 48.0 kHz
    Frame rate                               : 31.250 FPS (1536 SPF)
    Bit depth                                : 16 bits
    Compression mode                         : Lossy
    Stream size                              : 676 MiB (11%)
    Language                                 : Spanish
    Service kind                             : Complete Main
    Default                                  : Yes
    Forced                                   : No
    Statistics Tags Issue                    : mkvmerge v15.0.0 ('Duel with the Devil') 64-bit 2018-04-12 18:44:21 / mkvmerge v15.0.0 ('Duel with the Devil') 64-bit 2018-04-12 18:44:21 / UTC 2018-04-11T20:30:35Z
    FromStats_BitRate                        : 640000
    FromStats_Duration                       : 02:27:41.952000000
    FromStats_FrameCount                     : 276936
    FromStats_StreamSize                     : 708956160

    Audio #2
    ID                                       : 3
    Format                                   : DTS
    Format/Info                              : Digital Theater Systems
    Mode                                     : 16
    Format settings, Endianness              : Big
    Codec ID                                 : A_DTS
    Duration                                 : 2 h 27 min
    Bit rate mode                            : Constant
    Bit rate                                 : 1 509 kb/s
    Channel(s)                               : 6 channels
    Channel positions                        : Front: L C R, Side: L R, LFE
    Sampling rate                            : 48.0 kHz
    Frame rate                               : 93.750 FPS (512 SPF)
    Bit depth                                : 24 bits
    Compression mode                         : Lossy
    Stream size                              : 1.56 GiB (25%)
    Language                                 : English
    Default                                  : No
    Forced                                   : No
    Statistics Tags Issue                    : mkvmerge v15.0.0 ('Duel with the Devil') 64-bit 2018-04-12 18:44:21 / mkvmerge v15.0.0 ('Duel with the Devil') 64-bit 2018-04-12 18:44:21 / UTC 2018-04-11T20:30:35Z
    FromStats_BitRate                        : 1508999
    FromStats_Duration                       : 02:27:41.942000000
    FromStats_FrameCount                     : 830807
    FromStats_StreamSize                     : 1671583684

    Text #1
    ID                                       : 4
    Format                                   : PGS
    Muxing mode                              : zlib
    Codec ID                                 : S_HDMV/PGS
    Codec ID/Info                            : Picture based subtitle format used on BDs/HD-DVDs
    Title                                    : Forzados Latino
    Language                                 : Spanish
    Default                                  : Yes
    Forced                                   : Yes
    Statistics Tags Issue                    : mkvmerge v15.0.0 ('Duel with the Devil') 64-bit 2018-04-12 18:44:21 / mkvmerge v15.0.0 ('Duel with the Devil') 64-bit 2018-04-12 18:44:21 / UTC 2018-04-11T20:30:35Z
    FromStats_BitRate                        : 478
    FromStats_Duration                       : 02:26:19.520000000
    FromStats_FrameCount                     : 136
    FromStats_StreamSize                     : 524823

    Text #2
    ID                                       : 5
    Format                                   : PGS
    Muxing mode                              : zlib
    Codec ID                                 : S_HDMV/PGS
    Codec ID/Info                            : Picture based subtitle format used on BDs/HD-DVDs
    Title                                    : Completos Latino
    Language                                 : Spanish
    Default                                  : No
    Forced                                   : No
    Statistics Tags Issue                    : mkvmerge v15.0.0 ('Duel with the Devil') 64-bit 2018-04-12 18:44:21 / mkvmerge v15.0.0 ('Duel with the Devil') 64-bit 2018-04-12 18:44:21 / UTC 2018-04-11T20:30:35Z
    FromStats_BitRate                        : 31090
    FromStats_Duration                       : 02:26:19.520000000
    FromStats_FrameCount                     : 3410
    FromStats_StreamSize                     : 34120502

    Text #3
    ID                                       : 6
    Format                                   : PGS
    Muxing mode                              : zlib
    Codec ID                                 : S_HDMV/PGS
    Codec ID/Info                            : Picture based subtitle format used on BDs/HD-DVDs
    Title                                    : Ingles
    Language                                 : English
    Default                                  : No
    Forced                                   : No
    Statistics Tags Issue                    : mkvmerge v15.0.0 ('Duel with the Devil') 64-bit 2018-04-12 18:44:21 / mkvmerge v15.0.0 ('Duel with the Devil') 64-bit 2018-04-12 18:44:21 / UTC 2018-04-11T20:30:35Z
    FromStats_BitRate                        : 35405
    FromStats_Duration                       : 02:26:16.685000000
    FromStats_FrameCount                     : 4209
    FromStats_StreamSize                     : 38842916

    Menu
    00:00:00.000                             : :Chapter 1
    00:09:01.958                             : :Chapter 2
    00:13:04.993                             : :Chapter 3
    00:21:03.345                             : :Chapter 4
    00:27:53.380                             : :Chapter 5
    00:31:57.290                             : :Chapter 6
    00:35:08.398                             : :Chapter 7
    00:42:58.451                             : :Chapter 8
    00:52:04.622                             : :Chapter 9
    01:05:39.102                             : :Chapter 10
    01:16:41.639                             : :Chapter 11
    01:22:28.777                             : :Chapter 12
    01:29:29.489                             : :Chapter 13
    01:34:09.769                             : :Chapter 14
    01:45:38.582                             : :Chapter 15
    01:55:54.322                             : :Chapter 16
    02:02:35.056                             : :Chapter 17
    02:12:14.176                             : :Chapter 18
    02:18:29.384                             : :Chapter 19

  • Peso: 6.24 GiB

Sinopsis

“Captain America: Civil War” continúa la historia de “Avengers: Age of Ultron”, con Steve Rogers liderando un nuevo equipo de Vengadores en su esfuerzo por proteger a la humanidad. Tras otro incidente internacional relacionado con los Vengadores que ocasiona daños colaterales, la presión política fuerza a crear un sistema de registro y un cuerpo gubernamental para determinar cuándo se requiere los servicios del equipo. El nuevo status quo divide a los Vengadores mientras intentan salvar al mundo de un nuevo y perverso villano.”

Ficha técnica

Video trailer de la película

Enlaces de descarga

Rip de Bluray

Descargar Capitán América Civil War (2016) Full 1080p Latino




Aportes de DPeliculasHDmega la pass es:dpeliculashdmega.org Aportes de CinemaniaHD la pass es:cinemaniahdd.com

Películas relacionadas

  • Occupation (2018) WEBDL 1080p Subtitulada

    2018
    Occupation (2018) WEBDL 1080p Subtitulada

    0.0 1h 59m 2018

    El film se centra en un grupo de civiles que ven como su pequeño pueblo en Australia es aniquilado por...

    Director: Luke Sparke

    Género: Acción

    Actores: Temuera Morrison

  • Si solo pudiera imaginar (2018) Full 1080p Latino

    2018
    Si solo pudiera imaginar (2018) Full 1080p Latino

    4.8 1 h 50 min 2018

    La historia real de la aclamada canción "I Can Only Imagine", la canción cristiana contemporánea más...

    Director: Jon Erwin

    Género: Drama

    Actores: Trace Adkins

  • El Justiciero (2014) Full 1080p Latino

    2014
    El Justiciero (2014) Full 1080p Latino

    4.3 2 h 12 min 2014

    Robert McCall, un antiguo agente de la CIA que lleva ahora una vida tranquila, abandona su retiro para...

    Director: Deirdre Horgan

    Género: Acción

    Actores: Yan Dron

Comentarios 1
  • ocpgaiden - 13 abril, 2018

    gracias, gracias