Búsqueda Implacable 3 (2014) UNRATED Full 1080p Latino

1.306 vistas
1 estrella2 estrellas3 estrellas4 estrellas5 estrellas (Ninguna valoración todavía)
Cargando…

Información de Búsqueda Implacable 3 (2014) UNRATED Full 1080p Latino

Datos de la película

  • Calidad: Full 1080p
  • Audio: Español Latino AC3 5.1 BLURAY - Ingles DTS 5.1 BLURAY
  • Subtitulos: Español Latino PGS - Ingles PGS
  • Resolución: 1920X1080
  • Formato: MKV
  • Codec: H.264
  • Encoder: Dpelis
  • Mediainfo: Clic para Mostrar Datos Ver
  • Format                                   : Matroska
    Format version                           : Version 4 / Version 2
    File size                                : 10.0 GiB
    Duration                                 : 1 h 55 min
    Overall bit rate                         : 12.4 Mb/s
    Movie name                               : dpeliculashdmega.org
    Encoded date                             : UTC 2017-11-28 01:40:48 / UTC 2017-11-27T06:44:58Z
    Writing application                      : mkvmerge v15.0.0 ('Duel with the Devil') 64-bit
    Writing library                          : libebml v1.3.5 + libmatroska v1.4.5 / Lavf57.7.2

    Video
    ID                                       : 1
    Format                                   : AVC
    Format/Info                              : Advanced Video Codec
    Format profile                           : High@L4.1
    Format settings                          : CABAC / 4 Ref Frames
    Format settings, CABAC                   : Yes
    Format settings, RefFrames               : 4 frames
    Codec ID                                 : V_MPEG4/ISO/AVC
    Duration                                 : 1 h 55 min
    Bit rate                                 : 10.2 Mb/s
    Width                                    : 1 920 pixels
    Height                                   : 1 080 pixels
    Display aspect ratio                     : 16:9
    Frame rate mode                          : Constant
    Frame rate                               : 23.976 (24000/1001) FPS
    Color space                              : YUV
    Chroma subsampling                       : 4:2:0
    Bit depth                                : 8 bits
    Scan type                                : Progressive
    Bits/(Pixel*Frame)                       : 0.206
    Stream size                              : 8.24 GiB (82%)
    Title                                    : Búsqueda Implacable 3 (2014) UNRATED Full 1080p Latino
    Writing library                          : x264 core 148 r2708 86b7198
    Encoding settings                        : cabac=1 / ref=4 / deblock=1:0:0 / analyse=0x3:0x133 / me=esa / subme=10 / psy=1 / psy_rd=1.00:0.00 / mixed_ref=1 / me_range=24 / chroma_me=1 / trellis=2 / 8x8dct=1 / cqm=0 / deadzone=21,11 / fast_pskip=1 / chroma_qp_offset=-2 / threads=34 / lookahead_threads=5 / sliced_threads=0 / nr=0 / decimate=1 / interlaced=0 / bluray_compat=0 / constrained_intra=0 / bframes=8 / b_pyramid=2 / b_adapt=2 / b_bias=0 / direct=3 / weightb=1 / open_gop=0 / weightp=2 / keyint=240 / keyint_min=24 / scenecut=40 / intra_refresh=0 / rc_lookahead=60 / rc=crf / mbtree=1 / crf=20.0 / qcomp=0.60 / qpmin=0 / qpmax=69 / qpstep=4 / vbv_maxrate=62500 / vbv_bufsize=78125 / crf_max=0.0 / nal_hrd=none / filler=0 / ip_ratio=1.40 / aq=1:1.00
    Language                                 : English
    Default                                  : Yes
    Forced                                   : No
    Color range                              : Limited
    Color primaries                          : BT.709
    Transfer characteristics                 : BT.709
    Matrix coefficients                      : BT.709
    Statistics Tags Issue                    : mkvmerge v15.0.0 ('Duel with the Devil') 64-bit 2017-11-28 01:40:48 / mkvmerge v15.0.0 ('Duel with the Devil') 64-bit 2017-11-28 01:40:48 / UTC 2017-11-27T06:44:58Z
    FromStats_BitRate                        : 10457897
    FromStats_Duration                       : 01:55:18.662000000
    FromStats_FrameCount                     : 165882
    FromStats_StreamSize                     : 9044332617

    Audio #1
    ID                                       : 2
    Format                                   : AC-3
    Format/Info                              : Audio Coding 3
    Format settings, Endianness              : Big
    Codec ID                                 : A_AC3
    Duration                                 : 1 h 55 min
    Bit rate mode                            : Constant
    Bit rate                                 : 448 kb/s
    Channel(s)                               : 6 channels
    Channel positions                        : Front: L C R, Side: L R, LFE
    Sampling rate                            : 48.0 kHz
    Frame rate                               : 31.250 FPS (1536 SPF)
    Bit depth                                : 16 bits
    Compression mode                         : Lossy
    Stream size                              : 370 MiB (4%)
    Title                                    : Latino-AC3
    Language                                 : Spanish
    Service kind                             : Complete Main
    Default                                  : Yes
    Forced                                   : No
    Statistics Tags Issue                    : mkvmerge v15.0.0 ('Duel with the Devil') 64-bit 2017-11-28 01:40:48 / mkvmerge v15.0.0 ('Duel with the Devil') 64-bit 2017-11-28 01:40:48 / UTC 2017-11-27T06:44:58Z
    FromStats_BitRate                        : 448000
    FromStats_Duration                       : 01:55:18.816000000
    FromStats_FrameCount                     : 216213
    FromStats_StreamSize                     : 387453696

    Audio #2
    ID                                       : 3
    Format                                   : DTS
    Format/Info                              : Digital Theater Systems
    Mode                                     : 16
    Format settings, Endianness              : Big
    Codec ID                                 : A_DTS
    Duration                                 : 1 h 55 min
    Bit rate mode                            : Constant
    Bit rate                                 : 1 509 kb/s
    Channel(s)                               : 6 channels
    Channel positions                        : Front: L C R, Side: L R, LFE
    Sampling rate                            : 48.0 kHz
    Frame rate                               : 93.750 FPS (512 SPF)
    Bit depth                                : 24 bits
    Compression mode                         : Lossy
    Stream size                              : 1.22 GiB (12%)
    Title                                    : Ingles-AC3
    Language                                 : English
    Default                                  : No
    Forced                                   : No
    Statistics Tags Issue                    : mkvmerge v15.0.0 ('Duel with the Devil') 64-bit 2017-11-28 01:40:48 / mkvmerge v15.0.0 ('Duel with the Devil') 64-bit 2017-11-28 01:40:48 / UTC 2017-11-27T06:44:58Z
    FromStats_BitRate                        : 1509000
    FromStats_Duration                       : 01:55:18.752000000
    FromStats_FrameCount                     : 648633
    FromStats_StreamSize                     : 1305049596

    Text #1
    ID                                       : 4
    Format                                   : PGS
    Muxing mode                              : zlib
    Codec ID                                 : S_HDMV/PGS
    Codec ID/Info                            : Picture based subtitle format used on BDs/HD-DVDs
    Language                                 : English
    Default                                  : No
    Forced                                   : No
    Statistics Tags Issue                    : mkvmerge v15.0.0 ('Duel with the Devil') 64-bit 2017-11-28 01:40:48 / mkvmerge v15.0.0 ('Duel with the Devil') 64-bit 2017-11-28 01:40:48 / UTC 2017-11-27T06:44:58Z
    FromStats_BitRate                        : 35593
    FromStats_Duration                       : 01:54:26.691000000
    FromStats_FrameCount                     : 3404
    FromStats_StreamSize                     : 30551439

    Text #2
    ID                                       : 5
    Format                                   : PGS
    Muxing mode                              : zlib
    Codec ID                                 : S_HDMV/PGS
    Codec ID/Info                            : Picture based subtitle format used on BDs/HD-DVDs
    Language                                 : Spanish
    Default                                  : No
    Forced                                   : No
    Statistics Tags Issue                    : mkvmerge v15.0.0 ('Duel with the Devil') 64-bit 2017-11-28 01:40:48 / mkvmerge v15.0.0 ('Duel with the Devil') 64-bit 2017-11-28 01:40:48 / UTC 2017-11-27T06:44:58Z
    FromStats_BitRate                        : 26441
    FromStats_Duration                       : 01:54:26.691000000
    FromStats_FrameCount                     : 2560
    FromStats_StreamSize                     : 22695467

    Menu
    00:00:00.000                             : :Chapter 1
    00:04:18.049                             : :Chapter 2
    00:10:12.904                             : :Chapter 3
    00:13:20.550                             : :Chapter 4
    00:15:45.069                             : :Chapter 5
    00:18:25.438                             : :Chapter 6
    00:23:18.898                             : :Chapter 7
    00:25:49.339                             : :Chapter 8
    00:27:34.945                             : :Chapter 9
    00:30:21.486                             : :Chapter 10
    00:33:01.229                             : :Chapter 11
    00:36:00.367                             : :Chapter 12
    00:38:17.879                             : :Chapter 13
    00:43:08.503                             : :Chapter 14
    00:46:46.554                             : :Chapter 15
    00:50:21.310                             : :Chapter 16
    00:55:00.506                             : :Chapter 17
    00:59:07.461                             : :Chapter 18
    01:02:49.808                             : :Chapter 19
    01:05:57.120                             : :Chapter 20
    01:07:14.030                             : :Chapter 21
    01:09:59.195                             : :Chapter 22
    01:14:26.253                             : :Chapter 23
    01:18:10.352                             : :Chapter 24
    01:22:19.685                             : :Chapter 25
    01:25:26.371                             : :Chapter 26
    01:29:38.415                             : :Chapter 27
    01:33:24.724                             : :Chapter 28
    01:37:07.864                             : :Chapter 29
    01:40:37.907                             : :Chapter 30
    01:46:48.110                             : :Chapter 31
    01:49:43.160                             : :Chapter 32

  • Peso: 10.0 GiB

Sinopsis

Tercera entrega de la trilogía iniciada en 2008 con ‘Venganza’ y que cuenta con una secuela en 2012 bajo el título ‘Venganza: Conexión Estambul’, donde Liam Neeson (‘Batman Begins’) vuelve a meterse en la piel de Bryan, un espía retirado que no dudará en hacer lo necesario a favor de la justicia y la supervivencia.

Ficha técnica

Video trailer de la película

Enlaces de descarga

Rip de Bluray

Descargar Búsqueda Implacable 3 (2014) UNRATED Full 1080p Latino




Aportes de DPeliculasHDmega la pass es:dpeliculashdmega.org Aportes de CinemaniaHD la pass es:cinemaniahdd.com

Películas relacionadas

  • Si solo pudiera imaginar (2018) Full 1080p Latino

    2018
    Si solo pudiera imaginar (2018) Full 1080p Latino

    5.0 1 h 50 min 2018

    La historia real de la aclamada canción "I Can Only Imagine", la canción cristiana contemporánea más...

    Director: Jon Erwin

    Género: Drama

    Actores: Trace Adkins

  • El Justiciero (2014) Full 1080p Latino

    2014
    El Justiciero (2014) Full 1080p Latino

    4.0 2 h 12 min 2014

    Robert McCall, un antiguo agente de la CIA que lleva ahora una vida tranquila, abandona su retiro para...

    Director: Deirdre Horgan

    Género: Acción

    Actores: Yan Dron

  • James Bond Live and Let Die (1973) Full 1080p Latino

    1973
    James Bond Live and Let Die (1973) Full 1080p Latino

    0.0 2 h 1 min 1973

    En tan sólo veinticuatro horas, tres agentes del servicio secreto británico que investigaban una red...

    Director: Guy Hamilton

    Género: Acción

    Actores: Yaphet Kotto

Comentarios 2
  • Byron - 28 noviembre, 2017

    Faltan los links de mega…

    • Dpelis2 - 29 noviembre, 2017

      Agregados