Boo 2! A Madea Halloween (2017) 1080p Latino | CinemaniaHD - Descargar Peliculas 1080p Mega Google Drive

Boo 2! A Madea Halloween (2017) 1080p Latino

944 vistas
1 estrella2 estrellas3 estrellas4 estrellas5 estrellas (Ninguna valoración todavía)
Cargando…

Información de Boo 2! A Madea Halloween (2017) 1080p Latino

Datos de la película

  • Calidad: 1080p
  • Audio: Español Latino AC3 5.1 BLURAY - Ingles AC3 5.1 BLURAY
  • Subtitulos: Español Latino SRT- FORZADOS SRT
  • Resolución: 1920X1036p
  • Formato: MKV
  • Codec: H.264
  • Encoder: Dracarys
  • Mediainfo: Clic para Mostrar Datos Ver
  • Format                                   : Matroska
    Format version                           : Version 4 / Version 2
    File size                                : 3.01 GiB
    Duration                                 : 1 h 41 min
    Overall bit rate                         : 4 271 kb/s
    Movie name                               : CinemaniaHDD.com
    Encoded date                             : UTC 2018-01-18 02:01:50 / UTC 2018-01-17T20:25:09Z
    Writing application                      : mkvmerge v15.0.0 ('Duel with the Devil') 64-bit
    Writing library                          : libebml v1.3.5 + libmatroska v1.4.5 / Lavf57.7.2

    Video
    ID                                       : 1
    Format                                   : AVC
    Format/Info                              : Advanced Video Codec
    Format profile                           : High@L4.1
    Format settings                          : CABAC / 4 Ref Frames
    Format settings, CABAC                   : Yes
    Format settings, RefFrames               : 4 frames
    Codec ID                                 : V_MPEG4/ISO/AVC
    Duration                                 : 1 h 41 min
    Bit rate                                 : 3 500 kb/s
    Width                                    : 1 920 pixels
    Height                                   : 1 036 pixels
    Display aspect ratio                     : 1.85:1
    Frame rate mode                          : Constant
    Frame rate                               : 23.976 (24000/1001) FPS
    Color space                              : YUV
    Chroma subsampling                       : 4:2:0
    Bit depth                                : 8 bits
    Scan type                                : Progressive
    Bits/(Pixel*Frame)                       : 0.073
    Stream size                              : 2.37 GiB (79%)
    Title                                    : Boo 2! A Madea Halloween (2017) 1080p Latino
    Writing library                          : x264 core 148 r2708 86b7198
    Encoding settings                        : cabac=1 / ref=3 / deblock=1:0:0 / analyse=0x3:0x113 / me=hex / subme=7 / psy=1 / psy_rd=1.00:0.00 / mixed_ref=1 / me_range=16 / chroma_me=1 / trellis=1 / 8x8dct=1 / cqm=0 / deadzone=21,11 / fast_pskip=1 / chroma_qp_offset=-2 / threads=32 / lookahead_threads=5 / sliced_threads=0 / nr=0 / decimate=1 / interlaced=0 / bluray_compat=0 / constrained_intra=0 / bframes=3 / b_pyramid=2 / b_adapt=1 / b_bias=0 / direct=1 / weightb=1 / open_gop=0 / weightp=2 / keyint=240 / keyint_min=24 / scenecut=40 / intra_refresh=0 / rc_lookahead=40 / rc=abr / mbtree=1 / bitrate=3500 / ratetol=1.0 / qcomp=0.60 / qpmin=0 / qpmax=69 / qpstep=4 / vbv_maxrate=62500 / vbv_bufsize=78125 / nal_hrd=none / filler=0 / ip_ratio=1.40 / aq=1:1.00
    Language                                 : English
    Default                                  : Yes
    Forced                                   : No
    Color range                              : Limited
    Color primaries                          : BT.709
    Transfer characteristics                 : BT.709
    Matrix coefficients                      : BT.709
    Statistics Tags Issue                    : mkvmerge v15.0.0 ('Duel with the Devil') 64-bit 2018-01-18 02:01:50 / mkvmerge v15.0.0 ('Duel with the Devil') 64-bit 2018-01-18 02:01:50 / UTC 2018-01-17T20:25:09Z
    FromStats_BitRate                        : 3437001
    FromStats_Duration                       : 01:40:59.721000000
    FromStats_FrameCount                     : 145288
    FromStats_StreamSize                     : 2603408454

    Audio #1
    ID                                       : 2
    Format                                   : AC-3
    Format/Info                              : Audio Coding 3
    Format settings, Endianness              : Big
    Codec ID                                 : A_AC3
    Duration                                 : 1 h 41 min
    Bit rate mode                            : Constant
    Bit rate                                 : 448 kb/s
    Channel(s)                               : 6 channels
    Channel positions                        : Front: L C R, Side: L R, LFE
    Sampling rate                            : 48.0 kHz
    Frame rate                               : 31.250 FPS (1536 SPF)
    Bit depth                                : 16 bits
    Compression mode                         : Lossy
    Delay relative to video                  : -5 ms
    Stream size                              : 324 MiB (10%)
    Language                                 : Spanish
    Service kind                             : Complete Main
    Default                                  : Yes
    Forced                                   : No
    Statistics Tags Issue                    : mkvmerge v15.0.0 ('Duel with the Devil') 64-bit 2018-01-18 02:01:50 / mkvmerge v15.0.0 ('Duel with the Devil') 64-bit 2018-01-18 02:01:50 / UTC 2018-01-17T20:25:09Z
    FromStats_BitRate                        : 448000
    FromStats_Duration                       : 01:41:00.000000000
    FromStats_FrameCount                     : 189375
    FromStats_StreamSize                     : 339360000

    Audio #2
    ID                                       : 3
    Format                                   : AC-3
    Format/Info                              : Audio Coding 3
    Format settings, Endianness              : Big
    Codec ID                                 : A_AC3
    Duration                                 : 1 h 41 min
    Bit rate mode                            : Constant
    Bit rate                                 : 384 kb/s
    Channel(s)                               : 6 channels
    Channel positions                        : Front: L C R, Side: L R, LFE
    Sampling rate                            : 48.0 kHz
    Frame rate                               : 31.250 FPS (1536 SPF)
    Bit depth                                : 16 bits
    Compression mode                         : Lossy
    Delay relative to video                  : -5 ms
    Stream size                              : 277 MiB (9%)
    Language                                 : English
    Service kind                             : Complete Main
    Default                                  : No
    Forced                                   : No
    Statistics Tags Issue                    : mkvmerge v15.0.0 ('Duel with the Devil') 64-bit 2018-01-18 02:01:50 / mkvmerge v15.0.0 ('Duel with the Devil') 64-bit 2018-01-18 02:01:50 / UTC 2018-01-17T20:25:09Z
    FromStats_BitRate                        : 384000
    FromStats_Duration                       : 01:40:59.712000000
    FromStats_FrameCount                     : 189366
    FromStats_StreamSize                     : 290866176

    Text #1
    ID                                       : 4
    Format                                   : UTF-8
    Codec ID                                 : S_TEXT/UTF8
    Codec ID/Info                            : UTF-8 Plain Text
    Title                                    : Forzados
    Language                                 : Spanish
    Default                                  : Yes
    Forced                                   : Yes
    Statistics Tags Issue                    : mkvmerge v15.0.0 ('Duel with the Devil') 64-bit 2018-01-18 02:01:50 / mkvmerge v15.0.0 ('Duel with the Devil') 64-bit 2018-01-18 02:01:50 / UTC 2018-01-17T20:25:09Z
    FromStats_BitRate                        : 46
    FromStats_Duration                       : 00:00:11.929000000
    FromStats_FrameCount                     : 2
    FromStats_StreamSize                     : 70

    Text #2
    ID                                       : 5
    Format                                   : UTF-8
    Codec ID                                 : S_TEXT/UTF8
    Codec ID/Info                            : UTF-8 Plain Text
    Language                                 : Spanish
    Default                                  : No
    Forced                                   : No
    Statistics Tags Issue                    : mkvmerge v15.0.0 ('Duel with the Devil') 64-bit 2018-01-18 02:01:50 / mkvmerge v15.0.0 ('Duel with the Devil') 64-bit 2018-01-18 02:01:50 / UTC 2018-01-17T20:25:09Z
    FromStats_BitRate                        : 96
    FromStats_Duration                       : 01:32:40.638000000
    FromStats_FrameCount                     : 2018
    FromStats_StreamSize                     : 67121

    Menu
    00:00:00.000                             : :00:00:00.000
    00:05:44.761                             : :00:05:44.761
    00:11:32.567                             : :00:11:32.567
    00:18:08.838                             : :00:18:08.838
    00:23:46.926                             : :00:23:46.925
    00:31:24.424                             : :00:31:24.424
    00:37:38.631                             : :00:37:38.631
    00:44:37.258                             : :00:44:37.133
    00:51:59.867                             : :00:51:59.867
    00:57:43.168                             : :00:57:43.168
    00:59:53.465                             : :00:59:53.465
    01:04:36.581                             : :01:04:36.581
    01:08:27.353                             : :01:08:27.353
    01:15:04.500                             : :01:15:04.500
    01:19:55.874                             : :01:19:55.874
    01:25:47.893                             : :01:25:47.893

     

  • Peso: 3.01 GiB

Sinopsis

Tia Bam (Cassi Davis) y Hattie (Patrice Lovely) se aventuraron en un campamento asombrado. Allí el grupo debe correr por sus vidas cuando monstruos, goblins y el bicho-papón están sueltos.

Ficha técnica

  • Titulo original: Boo 2! A Madea Halloween
  • Fecha de lanzamiento: 20-10-2017
  • Director: Tyler Perry
  • Género: Comedia, Terror
  • Puntuación: 0.0 0 votos
  • Duración:
    1 h 41 min

Video trailer de la película

Enlaces de descarga

Rip de Bluray

Descargar Boo 2! A Madea Halloween (2017) 1080p Latino




Aportes de DPeliculasHDmega la pass es:dpeliculashdmega.org Aportes de CinemaniaHD la pass es:cinemaniahdd.com
Guardado en : Comedia , Terror

Películas relacionadas

  • Ralph El Demoledor (2012) Full 1080p Latino

    2012
    Ralph El Demoledor (2012) Full 1080p Latino

    0.0 1h 41m 2012

    Durante décadas, Ralph ha vivido a la sombra de Repara-Félix Jr., el chico bueno de su videojuego....

    Director: Rob Dressel

    Género: Animación

    Actores: Will Deters

  • V/H/S: (2014) Full 1080p Subtitulado

    2014
    V/H/S: (2014) Full 1080p Subtitulado

    4.2 1 h 21 min 2014

    Un camión está causando el caos en la calle, atropellando a todo aquel que se cruza en su camino. Mientras...

    Director: Todd Lincoln

    Género: FULL 1080p Plateadas

    Actores: Nick Blanco

  • V/H/S Las crónicas del miedo 2 (2013) Full 1080p Latino

    2013
    V/H/S Las crónicas del miedo 2 (2013) Full 1080p Latino

    4.3 1h 35m 2013

    Secuela de V/H/S (2012). Buscando a un estudiante desaparecido, dos investigadores privados irrumpen...

    Director: Timo Tjahjanto

    Género: FULL 1080p Plateadas

    Actores: Samantha Gracie

Comentarios 0