Batman del futuro El regreso del Joker (2000) 1080p Latino

1.410 vistas
1 estrella2 estrellas3 estrellas4 estrellas5 estrellas (1 votos, promedio: 5,00 de 5)
Cargando…

Información de Batman del futuro El regreso del Joker (2000) 1080p Latino

Datos de la película

  • Calidad: 1080p
  • Audio: Español Latino AC3 2.0 BLURAY - Ingles AC3 5.1 BLURAY
  • Subtitulos: Español Latino SRT - Ingles SRT
  • Resolución: 1920X1080P
  • Formato: MKV
  • Codec: H.264
  • Encoder: Dpelis
  • Mediainfo: Clic para Mostrar Datos Ver
  • Batman Beyond Return Of The Joker (2000) 1080p Latino.mkv
    Format                      : Matroska
    Format version              : Version 4 / Version 2
    File size                   : 2.18 GiB
    Duration                    : 1 h 16 min
    Overall bit rate            : 4 072 kb/s
    Movie name                  : DPeliculasHDMega.ORG
    Encoded date                : UTC 2017-09-12 02:53:15 / UTC 2017-09-12T02:21:57Z
    Writing application         : mkvmerge v10.0.0 ('To Drown In You') 64bit
    Writing library             : libebml v1.3.4 + libmatroska v1.4.5 / Lavf57.7.2

    Video
    ID                          : 1
    Format                      : AVC
    Format/Info                 : Advanced Video Codec
    Format profile              : High@L4.1
    Format settings, CABAC      : Yes
    Format settings, RefFrames  : 4 frames
    Codec ID                    : V_MPEG4/ISO/AVC
    Duration                    : 1 h 16 min
    Bit rate                    : 3 500 kb/s
    Width                       : 1 920 pixels
    Height                      : 1 080 pixels
    Display aspect ratio        : 16:9
    Frame rate mode             : Constant
    Frame rate                  : 23.976 (24000/1001) FPS
    Color space                 : YUV
    Chroma subsampling          : 4:2:0
    Bit depth                   : 8 bits
    Scan type                   : Progressive
    Bits/(Pixel*Frame)          : 0.070
    Stream size                 : 1.83 GiB (84%)
    Writing library             : x264 core 148 r2708 86b7198
    Encoding settings           : cabac=1 / ref=3 / deblock=1:0:0 / analyse=0x3:0x113 / me=hex / subme=7 / psy=1 / psy_rd=1.00:0.00 / mixed_ref=1 / me_range=16 / chroma_me=1 / trellis=1 / 8x8dct=1 / cqm=0 / deadzone=21,11 / fast_pskip=1 / chroma_qp_offset=-2 / threads=34 / lookahead_threads=5 / sliced_threads=0 / nr=0 / decimate=1 / interlaced=0 / bluray_compat=0 / constrained_intra=0 / bframes=3 / b_pyramid=2 / b_adapt=1 / b_bias=0 / direct=1 / weightb=1 / open_gop=0 / weightp=2 / keyint=240 / keyint_min=24 / scenecut=40 / intra_refresh=0 / rc_lookahead=40 / rc=abr / mbtree=1 / bitrate=3500 / ratetol=1.0 / qcomp=0.60 / qpmin=0 / qpmax=69 / qpstep=4 / vbv_maxrate=62500 / vbv_bufsize=78125 / nal_hrd=none / filler=0 / ip_ratio=1.40 / aq=1:1.00
    Default                     : Yes
    Forced                      : No
    Color range                 : Limited
    Color primaries             : BT.709
    Transfer characteristics    : BT.709
    Matrix coefficients         : BT.709
    Statistics Tags Issue       : mkvmerge v10.0.0 ('To Drown In You') 64bit 2017-09-12 02:53:15 / mkvmerge v10.0.0 ('To Drown In You') 64bit 2017-09-12 02:53:15 / UTC 2017-09-12T02:21:57Z
    FromStats_BitRate           : 3469216
    FromStats_Duration          : 01:16:45.893000000
    FromStats_FrameCount        : 110431
    FromStats_StreamSize        : 1997354804

    Audio #1
    ID                          : 2
    Format                      : AC-3
    Format/Info                 : Audio Coding 3
    Format settings, Endianness : Big
    Codec ID                    : A_AC3
    Duration                    : 1 h 16 min
    Bit rate mode               : Constant
    Bit rate                    : 192 kb/s
    Channel(s)                  : 2 channels
    Channel positions           : Front: L R
    Sampling rate               : 48.0 kHz
    Frame rate                  : 31.250 FPS (1536 SPF)
    Bit depth                   : 16 bits
    Compression mode            : Lossy
    Stream size                 : 105 MiB (5%)
    Title                       : Stereo
    Language                    : Spanish
    Service kind                : Complete Main
    Default                     : Yes
    Forced                      : No
    Statistics Tags Issue       : mkvmerge v10.0.0 ('To Drown In You') 64bit 2017-09-12 02:53:15 / mkvmerge v10.0.0 ('To Drown In You') 64bit 2017-09-12 02:53:15 / UTC 2017-09-12T02:21:57Z
    FromStats_BitRate           : 192000
    FromStats_Duration          : 01:16:45.952000000
    FromStats_FrameCount        : 143936
    FromStats_StreamSize        : 110542848

    Audio #2
    ID                          : 3
    Format                      : AC-3
    Format/Info                 : Audio Coding 3
    Format settings, Endianness : Big
    Codec ID                    : A_AC3
    Duration                    : 1 h 16 min
    Bit rate mode               : Constant
    Bit rate                    : 384 kb/s
    Channel(s)                  : 6 channels
    Channel positions           : Front: L C R, Side: L R, LFE
    Sampling rate               : 48.0 kHz
    Frame rate                  : 31.250 FPS (1536 SPF)
    Bit depth                   : 16 bits
    Compression mode            : Lossy
    Delay relative to video     : -5 ms
    Stream size                 : 211 MiB (9%)
    Title                       : Surround
    Language                    : English
    Service kind                : Complete Main
    Default                     : No
    Forced                      : No
    Statistics Tags Issue       : mkvmerge v10.0.0 ('To Drown In You') 64bit 2017-09-12 02:53:15 / mkvmerge v10.0.0 ('To Drown In You') 64bit 2017-09-12 02:53:15 / UTC 2017-09-12T02:21:57Z
    FromStats_BitRate           : 384000
    FromStats_Duration          : 01:16:45.920000000
    FromStats_FrameCount        : 143935
    FromStats_StreamSize        : 221084160

    Text #1
    ID                          : 4
    Format                      : PGS
    Muxing mode                 : zlib
    Codec ID                    : S_HDMV/PGS
    Codec ID/Info               : Picture based subtitle format used on BDs/HD-DVDs
    Language                    : Spanish
    Default                     : No
    Forced                      : No
    Statistics Tags Issue       : mkvmerge v10.0.0 ('To Drown In You') 64bit 2017-09-12 02:53:15 / mkvmerge v10.0.0 ('To Drown In You') 64bit 2017-09-12 02:53:15 / UTC 2017-09-12T02:21:57Z
    FromStats_BitRate           : 12214
    FromStats_Duration          : 01:16:27.958000000
    FromStats_FrameCount        : 1546
    FromStats_StreamSize        : 7005184

    Text #2
    ID                          : 5
    Format                      : PGS
    Muxing mode                 : zlib
    Codec ID                    : S_HDMV/PGS
    Codec ID/Info               : Picture based subtitle format used on BDs/HD-DVDs
    Language                    : English
    Default                     : No
    Forced                      : No
    Statistics Tags Issue       : mkvmerge v10.0.0 ('To Drown In You') 64bit 2017-09-12 02:53:15 / mkvmerge v10.0.0 ('To Drown In You') 64bit 2017-09-12 02:53:15 / UTC 2017-09-12T02:21:57Z
    FromStats_BitRate           : 12528
    FromStats_Duration          : 01:16:23.621000000
    FromStats_FrameCount        : 1759
    FromStats_StreamSize        : 7178229

    Text #3
    ID                          : 6
    Format                      : UTF-8
    Codec ID                    : S_TEXT/UTF8
    Codec ID/Info               : UTF-8 Plain Text
    Language                    : Spanish
    Default                     : Yes
    Forced                      : No
    Statistics Tags Issue       : mkvmerge v10.0.0 ('To Drown In You') 64bit 2017-09-12 02:53:15 / mkvmerge v10.0.0 ('To Drown In You') 64bit 2017-09-12 02:53:15 / UTC 2017-09-12T02:21:57Z
    FromStats_BitRate           : 50
    FromStats_Duration          : 01:16:27.958000000
    FromStats_FrameCount        : 773
    FromStats_StreamSize        : 28806

    Text #4
    ID                          : 7
    Format                      : UTF-8
    Codec ID                    : S_TEXT/UTF8
    Codec ID/Info               : UTF-8 Plain Text
    Language                    : English
    Default                     : No
    Forced                      : No
    Statistics Tags Issue       : mkvmerge v10.0.0 ('To Drown In You') 64bit 2017-09-12 02:53:15 / mkvmerge v10.0.0 ('To Drown In You') 64bit 2017-09-12 02:53:15 / UTC 2017-09-12T02:21:57Z
    FromStats_BitRate           : 50
    FromStats_Duration          : 01:16:23.621000000
    FromStats_FrameCount        : 880
    FromStats_StreamSize        : 29058

    Menu
    00:00:00.000                : :Chapter 1
    00:08:09.489                : :Chapter 2
    00:10:31.131                : :Chapter 3
    00:11:43.703                : :Chapter 4
    00:14:36.292                : :Chapter 5
    00:19:54.193                : :Chapter 6
    00:21:13.397                : :Chapter 7
    00:24:11.617                : :Chapter 8
    00:25:06.463                : :Chapter 9
    00:30:34.833                : :Chapter 10
    00:34:11.508                : :Chapter 11
    00:45:02.742                : :Chapter 12
    00:46:11.560                : :Chapter 13
    00:47:52.828                : :Chapter 14
    00:51:26.834                : :Chapter 15
    00:53:45.431                : :Chapter 16
    00:59:41.286                : :Chapter 17
    01:11:35.708                : :Chapter 18

  • Peso: 2.18 GB

Sinopsis

Joker no murió y ahora es más fuerte. Terry MacGinnis, el Batman del Futuro se enfrentará al enemigo de su mentor, Bruce Wayne.

Ficha técnica

  • Titulo original: Batman Beyond: Return of the Joker
  • Fecha de lanzamiento: 12-12-2000 (United States of America)
  • Director: Curt Geda
  • Género: Animación, Familia
  • Puntuación: 5.0 1 votos
  • Duración:
    1h 16m

Video trailer de la película

Enlaces de descarga

Rip de Bluray

Descargar Batman del futuro El regreso del Joker (2000) 1080p Latino




Aportes de DPeliculasHDmega la pass es:dpeliculashdmega.org Aportes de CinemaniaHD la pass es:cinemaniahdd.com
Guardado en : Animación , Familia

Películas relacionadas

  • Pato pato Ganso (2018) 1080p Latino

    2018
    Pato pato Ganso (2018) 1080p Latino

    0.0 1h 22m 2018

    Después de que sufrió una lesión, un soltero de alto vuelo se enfrenta a dos huérfanos de ojos muy...

    Director: Christopher Jenkins

    Género: 1080p Portada Negra

    Actores: Zendaya

  • Si solo pudiera imaginar (2018) Full 1080p Latino

    2018
    Si solo pudiera imaginar (2018) Full 1080p Latino

    5.0 1 h 50 min 2018

    La historia real de la aclamada canción "I Can Only Imagine", la canción cristiana contemporánea más...

    Director: Jon Erwin

    Género: Drama

    Actores: Trace Adkins

  • Isla de perros (2018) Full 1080p Latino

    2018
    Isla de perros (2018) Full 1080p Latino

    5.0 1 h 41 min 2018

    Después de que todas las mascotas caninas de Megasaki City sean exiliadas a una isla que es un vertedero,...

    Director: Wes Anderson

    Género: Animación

    Actores: Yoko Ono

  • Un viaje en el tiempo (2018) 4K HDR Latino

    2018
    Un viaje en el tiempo (2018) 4K HDR Latino

    0.0 1 h 49 min 2018

    Tras la desaparición de su padre, un científico, tres seres peculiares envían a la joven Meg, a su...

    Director: Ava DuVernay

    Género: 4K HDR

    Actores: Zach Galifianakis

Comentarios 2
  • slash - 13 septiembre, 2017

    Gracias, anteriormente me descargue una versión que ocupaba toda la pantalla, pero se veía muy feita, creo le hicieron upscale, se agradece el aporte.

    • dpelis - 13 septiembre, 2017

      la verdad nose, igual es el bluray de It 1990, que al quitar las franjas qda muy raro por eso las dejo full,