Descargar Avengers Infinity War 1080p Latino CinemaniaHD - Descargar Peliculas 1080p Mega Google Drive

Avengers Infinity War (2018) 1080p Latino

12.553 vistas
1 estrella2 estrellas3 estrellas4 estrellas5 estrellas (50 votos, promedio: 4,76 de 5)
Cargando…

Información de Avengers Infinity War (2018) 1080p Latino

Datos de la película

  • Calidad: 1080p
  • Audio: Español Latino AC3 5.1 BLURAY - Ingles AC3 5.1 BLURAY
  • Subtitulos: Español Latino SRT- FORZADOS SRT
  • Resolución: 1920x808p
  • Formato: MKV
  • Codec: H.264
  • Encoder: Dracarys
  • Mediainfo: Clic para Mostrar Datos Ver
  • Format                                   : Matroska
    Format version                           : Version 4 / Version 2
    File size                                : 4.97 GiB
    Duration                                 : 2 h 29 min
    Overall bit rate                         : 4 760 kb/s
    Movie name                               : CinemaniaHDD.net
    Encoded date                             : UTC 2018-08-01 05:03:03 / UTC 2018-08-01T03:14:31Z
    Writing application                      : mkvmerge v15.0.0 ('Duel with the Devil') 64-bit
    Writing library                          : libebml v1.3.5 + libmatroska v1.4.5 / Lavf57.7.2

    Video
    ID                                       : 1
    Format                                   : AVC
    Format/Info                              : Advanced Video Codec
    Format profile                           : High@L4.1
    Format settings                          : CABAC / 5 Ref Frames
    Format settings, CABAC                   : Yes
    Format settings, RefFrames               : 5 frames
    Codec ID                                 : V_MPEG4/ISO/AVC
    Duration                                 : 2 h 29 min
    Bit rate                                 : 3 500 kb/s
    Width                                    : 1 920 pixels
    Height                                   : 808 pixels
    Display aspect ratio                     : 2.40:1
    Frame rate mode                          : Constant
    Frame rate                               : 23.976 (24000/1001) FPS
    Color space                              : YUV
    Chroma subsampling                       : 4:2:0
    Bit depth                                : 8 bits
    Scan type                                : Progressive
    Bits/(Pixel*Frame)                       : 0.094
    Stream size                              : 3.53 GiB (71%)
    Title                                    : Avengers Infinity War (2018) 1080p Latino
    Writing library                          : x264 core 148 r2708 86b7198
    Encoding settings                        : cabac=1 / ref=5 / deblock=1:0:0 / analyse=0x3:0x113 / me=umh / subme=8 / psy=1 / psy_rd=1.00:0.00 / mixed_ref=1 / me_range=16 / chroma_me=1 / trellis=1 / 8x8dct=1 / cqm=0 / deadzone=21,11 / fast_pskip=1 / chroma_qp_offset=-2 / threads=25 / lookahead_threads=4 / sliced_threads=0 / nr=0 / decimate=1 / interlaced=0 / bluray_compat=0 / constrained_intra=0 / bframes=3 / b_pyramid=2 / b_adapt=2 / b_bias=0 / direct=3 / weightb=1 / open_gop=0 / weightp=2 / keyint=240 / keyint_min=24 / scenecut=40 / intra_refresh=0 / rc_lookahead=50 / rc=abr / mbtree=1 / bitrate=3500 / ratetol=1.0 / qcomp=0.60 / qpmin=0 / qpmax=69 / qpstep=4 / vbv_maxrate=62500 / vbv_bufsize=78125 / nal_hrd=none / filler=0 / ip_ratio=1.40 / aq=1:1.00
    Language                                 : English
    Default                                  : Yes
    Forced                                   : No
    Color range                              : Limited
    Color primaries                          : BT.709
    Transfer characteristics                 : BT.709
    Matrix coefficients                      : BT.709
    Statistics Tags Issue                    : mkvmerge v15.0.0 ('Duel with the Devil') 64-bit 2018-08-01 05:03:03 / mkvmerge v15.0.0 ('Duel with the Devil') 64-bit 2018-08-01 05:03:03 / UTC 2018-08-01T03:14:31Z
    FromStats_BitRate                        : 3477826
    FromStats_Duration                       : 02:29:21.244000000
    FromStats_FrameCount                     : 214855
    FromStats_StreamSize                     : 3895706919

    Audio #1
    ID                                       : 2
    Format                                   : AC-3
    Format/Info                              : Audio Coding 3
    Format settings, Endianness              : Big
    Codec ID                                 : A_AC3
    Duration                                 : 2 h 29 min
    Bit rate mode                            : Constant
    Bit rate                                 : 640 kb/s
    Channel(s)                               : 6 channels
    Channel positions                        : Front: L C R, Side: L R, LFE
    Sampling rate                            : 48.0 kHz
    Frame rate                               : 31.250 FPS (1536 SPF)
    Bit depth                                : 16 bits
    Compression mode                         : Lossy
    Delay relative to video                  : -5 ms
    Stream size                              : 684 MiB (13%)
    Language                                 : Spanish
    Service kind                             : Complete Main
    Default                                  : Yes
    Forced                                   : No
    Statistics Tags Issue                    : mkvmerge v15.0.0 ('Duel with the Devil') 64-bit 2018-08-01 05:03:03 / mkvmerge v15.0.0 ('Duel with the Devil') 64-bit 2018-08-01 05:03:03 / UTC 2018-08-01T03:14:31Z
    FromStats_BitRate                        : 640000
    FromStats_Duration                       : 02:29:21.248000000
    FromStats_FrameCount                     : 280039
    FromStats_StreamSize                     : 716899840

    Audio #2
    ID                                       : 3
    Format                                   : AC-3
    Format/Info                              : Audio Coding 3
    Format settings, Endianness              : Big
    Codec ID                                 : A_AC3
    Duration                                 : 2 h 29 min
    Bit rate mode                            : Constant
    Bit rate                                 : 640 kb/s
    Channel(s)                               : 6 channels
    Channel positions                        : Front: L C R, Side: L R, LFE
    Sampling rate                            : 48.0 kHz
    Frame rate                               : 31.250 FPS (1536 SPF)
    Bit depth                                : 16 bits
    Compression mode                         : Lossy
    Delay relative to video                  : -5 ms
    Stream size                              : 684 MiB (13%)
    Language                                 : English
    Service kind                             : Complete Main
    Default                                  : No
    Forced                                   : No
    Statistics Tags Issue                    : mkvmerge v15.0.0 ('Duel with the Devil') 64-bit 2018-08-01 05:03:03 / mkvmerge v15.0.0 ('Duel with the Devil') 64-bit 2018-08-01 05:03:03 / UTC 2018-08-01T03:14:31Z
    FromStats_BitRate                        : 640000
    FromStats_Duration                       : 02:29:21.216000000
    FromStats_FrameCount                     : 280038
    FromStats_StreamSize                     : 716897280

    Text #1
    ID                                       : 4
    Format                                   : UTF-8
    Codec ID                                 : S_TEXT/UTF8
    Codec ID/Info                            : UTF-8 Plain Text
    Title                                    : Forzados
    Language                                 : Spanish
    Default                                  : Yes
    Forced                                   : Yes
    Statistics Tags Issue                    : mkvmerge v15.0.0 ('Duel with the Devil') 64-bit 2018-08-01 05:03:03 / mkvmerge v15.0.0 ('Duel with the Devil') 64-bit 2018-08-01 05:03:03 / UTC 2018-08-01T03:14:31Z
    FromStats_BitRate                        : 0
    FromStats_Duration                       : 02:01:51.945000000
    FromStats_FrameCount                     : 8
    FromStats_StreamSize                     : 174

    Text #2
    ID                                       : 5
    Format                                   : UTF-8
    Codec ID                                 : S_TEXT/UTF8
    Codec ID/Info                            : UTF-8 Plain Text
    Language                                 : Spanish
    Default                                  : No
    Forced                                   : No
    Statistics Tags Issue                    : mkvmerge v15.0.0 ('Duel with the Devil') 64-bit 2018-08-01 05:03:03 / mkvmerge v15.0.0 ('Duel with the Devil') 64-bit 2018-08-01 05:03:03 / UTC 2018-08-01T03:14:31Z
    FromStats_BitRate                        : 39
    FromStats_Duration                       : 02:28:51.775000000
    FromStats_FrameCount                     : 1573
    FromStats_StreamSize                     : 43572

    Menu
    00:00:00.000                             : :00:00:00.000
    00:11:28.730                             : :00:11:28.730
    00:18:13.884                             : :00:18:13.884
    00:27:23.809                             : :00:27:23.809
    00:35:48.813                             : :00:35:48.813
    00:42:23.583                             : :00:42:23.541
    00:54:12.875                             : :00:54:12.875
    00:59:36.740                             : :00:59:36.740
    01:05:07.153                             : :01:05:07.153
    01:10:53.666                             : :01:10:53.666
    01:17:06.956                             : :01:17:06.956
    01:24:14.758                             : :01:24:14.758
    01:31:08.004                             : :01:31:08.004
    01:42:00.406                             : :01:42:00.406
    01:45:57.810                             : :01:45:57.810
    01:53:04.069                             : :01:53:04.069
    01:58:52.917                             : :01:58:52.917
    02:03:58.181                             : :02:03:58.181
    02:11:13.282                             : :02:11:13.282
    02:17:31.410                             : :02:17:31.285

  • Peso: 4.97 GiB

Sinopsis

Descargar Vengadores: Infinity War es una de las mas esperar de 2018, una peliculawarez,  seguirá la lucha de los superhéroes de Marvel contra el mayor villano al que se han enfrentado nunca: Thanos. Su único objetivo será detener a este poderoso antagonista e impedir que se haga con el control de la galaxia. De nuevo veremos al grupo formado por Iron Man, Capitán América, Viuda negra, Ant-Man, Ojo de Halcón, Thor y Hulk, entre otros. En su nueva e impactante aventura, las Gemas del Infinito estarán en juego, unos querrán protegerlas y otros controlarlas, ¿quién ganará?

Ficha técnica

Video trailer de la película

Enlaces de descarga

Rip de Bluray

Descargar Avengers Infinity War (2018) 1080p Latino




Aportes de DPeliculasHDmega la pass es:dpeliculashdmega.org Aportes de CinemaniaHD la pass es:cinemaniahdd.com

Películas relacionadas

  • La jungla (2017) 1080p Latino

    2017
    La jungla (2017) 1080p Latino

    0.0 1h 55m 2017

    Cuenta la historia real de Yossi Ghinsberg, un joven aventurero que vivió para escribir un bestseller...

    Director: Greg McLean

    Género: 1080p Portada Negra

    Actores: Yasmin Kassim

  • Big Fish & Begonia (2018) NF 1080p Latino

    2016
    Big Fish & Begonia (2018) NF 1080p Latino

    0.0 1h 30m 2016

    En un universo más allá del nuestro, Chun celebra su decimosexto aniversario cumpliendo una tradición...

    Director: Zhang Chun

    Género: Animación

    Actores: Zhang Jie

  • The Hitman’s Bodyguard (2017) Full 1080p Latino

    2017
    The Hitman’s Bodyguard (2017) Full 1080p Latino

    4.3 1 h 58 min 2017

    El prestigioso guardaespaldas Michael Bryce recibe un nuevo cliente: un asesino a sueldo, Darius Kincaid,...

    Director: Stefania Velichkova

    Género: Acción

    Actores: Yuri Kolokolnikov

  • Predators (2010) 4K HDR Latino

    2010
    Predators (2010) 4K HDR Latino

    4.0 1h 47m 2010

    Royce es un mercenario que, a regañadientes, encabeza a un grupo de guerreros de élite que acaban dándose...

    Director: Nimród Antal

    Género: 4K HDR

    Actores: Walton Goggins

Comentarios 7
  • vicentesdvl - 09 agosto, 2018

    Oye amigo, deberias tener más cuidado a la hora de colorar las capturas ya que estas contienen spoilers y los que no han visto la pelicula, se caga todo; de todos modos se agradece el aporte 🙂

  • ccesteban - 04 agosto, 2018

    como se puede descargar me sale una especie de blog no sale la pagina de pastedpelis

    • dpelis - 05 agosto, 2018

      sino le sale a la primera vuelva intenta . a veces sale a la segnda vezz

  • Naoto - 01 agosto, 2018

    Habra una version mas pesada

  • Naoto - 01 agosto, 2018

    Gracias amigo por gran estreno, perohabra una version mas pesada?

    • Dracarys - 01 agosto, 2018

      mas tarde