Atlantis El regreso de Milo (2003) Full 1080p Latino

878 vistas
1 estrella2 estrellas3 estrellas4 estrellas5 estrellas (1 votos, promedio: 5,00 de 5)
Cargando…

Información de Atlantis El regreso de Milo (2003) Full 1080p Latino

Datos de la película

  • Calidad: Full 1080p
  • Audio: Español Latino AC3 5.1 BLURAY - Ingles DTS 5.1 BLURAY
  • Subtitulos: Español Latino PGS - Ingles PGS
  • Resolución: 1920x1080p
  • Formato: MKV
  • Codec: H.264
  • Encoder: Dracarys
  • Mediainfo: Clic para Mostrar Datos Ver
  • Format                                   : Matroska
    Format version                           : Version 4 / Version 2
    File size                                : 3.15 GiB
    Duration                                 : 1 h 20 min
    Overall bit rate                         : 5 606 kb/s
    Movie name                               : CinemaniaHDD.net
    Encoded date                             : UTC 2018-09-23 02:02:57 / UTC 2018-09-19T08:23:31Z
    Writing application                      : mkvmerge v15.0.0 ('Duel with the Devil') 64-bit
    Writing library                          : libebml v1.3.5 + libmatroska v1.4.5 / Lavf57.7.2

    Video
    ID                                       : 1
    Format                                   : AVC
    Format/Info                              : Advanced Video Codec
    Format profile                           : High@L4.1
    Format settings                          : CABAC / 4 Ref Frames
    Format settings, CABAC                   : Yes
    Format settings, RefFrames               : 4 frames
    Codec ID                                 : V_MPEG4/ISO/AVC
    Duration                                 : 1 h 20 min
    Bit rate                                 : 3 346 kb/s
    Width                                    : 1 920 pixels
    Height                                   : 1 080 pixels
    Display aspect ratio                     : 16:9
    Frame rate mode                          : Constant
    Frame rate                               : 23.976 (24000/1001) FPS
    Color space                              : YUV
    Chroma subsampling                       : 4:2:0
    Bit depth                                : 8 bits
    Scan type                                : Progressive
    Bits/(Pixel*Frame)                       : 0.067
    Stream size                              : 1.88 GiB (60%)
    Writing library                          : x264 core 148 r2708 86b7198
    Encoding settings                        : cabac=1 / ref=4 / deblock=1:0:0 / analyse=0x3:0x133 / me=esa / subme=10 / psy=1 / psy_rd=1.00:0.00 / mixed_ref=1 / me_range=24 / chroma_me=1 / trellis=2 / 8x8dct=1 / cqm=0 / deadzone=21,11 / fast_pskip=1 / chroma_qp_offset=-2 / threads=34 / lookahead_threads=5 / sliced_threads=0 / nr=0 / decimate=1 / interlaced=0 / bluray_compat=0 / constrained_intra=0 / bframes=8 / b_pyramid=2 / b_adapt=2 / b_bias=0 / direct=3 / weightb=1 / open_gop=0 / weightp=2 / keyint=240 / keyint_min=24 / scenecut=40 / intra_refresh=0 / rc_lookahead=60 / rc=crf / mbtree=1 / crf=20.0 / qcomp=0.60 / qpmin=0 / qpmax=69 / qpstep=4 / vbv_maxrate=62500 / vbv_bufsize=78125 / crf_max=0.0 / nal_hrd=none / filler=0 / ip_ratio=1.40 / aq=1:1.00
    Language                                 : English
    Default                                  : Yes
    Forced                                   : No
    Color range                              : Limited
    Color primaries                          : BT.709
    Transfer characteristics                 : BT.709
    Matrix coefficients                      : BT.709
    Statistics Tags Issue                    : mkvmerge v15.0.0 ('Duel with the Devil') 64-bit 2018-09-23 02:02:57 / mkvmerge v15.0.0 ('Duel with the Devil') 64-bit 2018-09-23 02:02:57 / UTC 2018-09-19T08:23:31Z
    FromStats_BitRate                        : 3428684
    FromStats_Duration                       : 01:20:24.862000000
    FromStats_FrameCount                     : 115681
    FromStats_StreamSize                     : 2067866472

    Audio #1
    ID                                       : 2
    Format                                   : AC-3
    Format/Info                              : Audio Coding 3
    Format settings, Endianness              : Big
    Codec ID                                 : A_AC3
    Duration                                 : 1 h 20 min
    Bit rate mode                            : Constant
    Bit rate                                 : 640 kb/s
    Channel(s)                               : 6 channels
    Channel positions                        : Front: L C R, Side: L R, LFE
    Sampling rate                            : 48.0 kHz
    Frame rate                               : 31.250 FPS (1536 SPF)
    Bit depth                                : 16 bits
    Compression mode                         : Lossy
    Stream size                              : 368 MiB (11%)
    Language                                 : Spanish
    Service kind                             : Complete Main
    Default                                  : Yes
    Forced                                   : No
    Statistics Tags Issue                    : mkvmerge v15.0.0 ('Duel with the Devil') 64-bit 2018-09-23 02:02:57 / mkvmerge v15.0.0 ('Duel with the Devil') 64-bit 2018-09-23 02:02:57 / UTC 2018-09-19T08:23:31Z
    FromStats_BitRate                        : 640000
    FromStats_Duration                       : 01:20:24.864000000
    FromStats_FrameCount                     : 150777
    FromStats_StreamSize                     : 385989120

    Audio #2
    ID                                       : 3
    Format                                   : DTS
    Format/Info                              : Digital Theater Systems
    Mode                                     : 16
    Format settings, Endianness              : Big
    Codec ID                                 : A_DTS
    Duration                                 : 1 h 20 min
    Bit rate mode                            : Constant
    Bit rate                                 : 1 509 kb/s
    Channel(s)                               : 6 channels
    Channel positions                        : Front: L C R, Side: L R, LFE
    Sampling rate                            : 48.0 kHz
    Frame rate                               : 93.750 FPS (512 SPF)
    Bit depth                                : 24 bits
    Compression mode                         : Lossy
    Stream size                              : 868 MiB (27%)
    Language                                 : English
    Default                                  : No
    Forced                                   : No
    Statistics Tags Issue                    : mkvmerge v15.0.0 ('Duel with the Devil') 64-bit 2018-09-23 02:02:57 / mkvmerge v15.0.0 ('Duel with the Devil') 64-bit 2018-09-23 02:02:57 / UTC 2018-09-19T08:23:31Z
    FromStats_BitRate                        : 1508999
    FromStats_Duration                       : 01:20:24.854000000
    FromStats_FrameCount                     : 452330
    FromStats_StreamSize                     : 910087960

    Text #1
    ID                                       : 4
    Format                                   : PGS
    Muxing mode                              : zlib
    Codec ID                                 : S_HDMV/PGS
    Codec ID/Info                            : Picture based subtitle format used on BDs/HD-DVDs
    Language                                 : English
    Default                                  : No
    Forced                                   : No
    Statistics Tags Issue                    : mkvmerge v15.0.0 ('Duel with the Devil') 64-bit 2018-09-23 02:02:57 / mkvmerge v15.0.0 ('Duel with the Devil') 64-bit 2018-09-23 02:02:57 / UTC 2018-09-19T08:23:31Z
    FromStats_BitRate                        : 47331
    FromStats_Duration                       : 01:14:48.359000000
    FromStats_FrameCount                     : 2370
    FromStats_StreamSize                     : 26555214

    Text #2
    ID                                       : 5
    Format                                   : PGS
    Muxing mode                              : zlib
    Codec ID                                 : S_HDMV/PGS
    Codec ID/Info                            : Picture based subtitle format used on BDs/HD-DVDs
    Language                                 : Spanish
    Default                                  : No
    Forced                                   : No
    Statistics Tags Issue                    : mkvmerge v15.0.0 ('Duel with the Devil') 64-bit 2018-09-23 02:02:57 / mkvmerge v15.0.0 ('Duel with the Devil') 64-bit 2018-09-23 02:02:57 / UTC 2018-09-19T08:23:31Z
    FromStats_BitRate                        : 43190
    FromStats_Duration                       : 01:14:48.359000000
    FromStats_FrameCount                     : 2036
    FromStats_StreamSize                     : 24231849

    Menu
    00:00:00.000                             : :Chapter 1
    00:06:51.620                             : :Chapter 2
    00:14:13.186                             : :Chapter 3
    00:20:53.085                             : :Chapter 4
    00:27:33.193                             : :Chapter 5
    00:34:45.834                             : :Chapter 6
    00:40:59.666                             : :Chapter 7
    00:52:13.005                             : :Chapter 8
    01:00:24.079                             : :Chapter 9
    01:10:41.946                             : :Chapter 10

  • Peso: 3.15 GiB

Sinopsis

En la primera expedición (Atlantis: El Imperio Perdido), Milo y sus acompañantes encontraron la famosa ciudad perdida de Atlantis y salvaron al misterioso reino y a sus habitantes. Ahora, Milo, Kida y su equipo vivirán nuevas aventuras y descubrirán que poseen nuevos poderes. En su nueva misión, el equipo se enfrentará a enormes monstruos marinos, a espíritus espectaculares y poderosas leyendas recorriendo desde el polvoriento desierto del sudoeste hasta las heladas montañas nórdicas. A lo largo de esta aventura, Kida descubre el increíble poder de los cristales encantados de su ciudad y tiene que decidir si oculta ese poder en el Corazón de Atlantis o lo comparte con el resto del mando… Secuela directa a vídeo de la película de Disney de 2001.

Ficha técnica

Video trailer de la película

Enlaces de descarga

Rip de Bluray

Descargar Atlantis El regreso de Milo (2003) Full 1080p Latino




Aportes de DPeliculasHDmega la pass es:dpeliculashdmega.org Aportes de CinemaniaHD la pass es:cinemaniahdd.com

Películas relacionadas

  • The Night Comes For Us (2018) NF 1080p Latino

    2018
    The Night Comes For Us (2018) NF 1080p Latino

    1.0 2h 1m 2018

    The Night Comes For Us (2018) NF 1080p Latino; Mega, Google Drive. Un antiguo sicario debe proteger a...

    Director: Timo Tjahjanto

    Género: Acción

    Actores: Zack Lee

  • Illang: La brigada del lobo (2018) NF 1080p Latino

    2018
    Illang: La brigada del lobo (2018) NF 1080p Latino

    1.0 2h 19m 2018

    Descargar Illang: La brigada del lobo (2018) NF 1080p Latino; Mega, Google Drive. Basada en el anime...

    Director: Kim Jee-woon

    Género: Acción

    Actores: Shin Eun-soo

  • Mentes poderosas (2018) 1080p Latino

    2018
    Mentes poderosas (2018) 1080p Latino

    1.0 1h 45m 2018

    Descargar Mentes poderosas (2018) 1080p Latino; Mega, Google Drive. Encarcelados en un mundo adulto...

    Director: Jennifer Yuh Nelson

    Género: Ciencia ficción

    Actores: William Walker

  • Paciente Cero (2018) Full 1080p Latino

    2018
    Paciente Cero (2018) Full 1080p Latino

    3.7 1h 26m 2018

    Paciente Cero (2018) Full 1080p Latino; Mega, Google Drive. Tras una pandemia sin precedentes, la Humanidad...

    Director: Stefan Ruzowitzky

    Género: Acción

    Actores: Yumiko Hanasaka

Comentarios 0