Amigos de armas (2016) Full 1080p Latino

581 vistas
1 estrella2 estrellas3 estrellas4 estrellas5 estrellas (Ninguna valoración todavía)
Cargando…

Información de Amigos de armas (2016) Full 1080p Latino

Datos de la película

  • Calidad: Full 1080p
  • Audio: Español Latino AC3 5.1 BLURAY - Ingles DTS 5.1 BLURAY
  • Subtitulos: Español Latino PGS - Ingles PGS
  • Resolución: 1920x1080p
  • Formato: MKV
  • Codec: H.264
  • Encoder: Dracarys
  • Mediainfo: Clic para Mostrar Datos Ver
  • Format                                   : Matroska
    Format version                           : Version 4 / Version 2
    File size                                : 5.35 GiB
    Duration                                 : 1 h 54 min
    Overall bit rate                         : 6 709 kb/s
    Movie name                               : CinemaniaHDD.com
    Encoded date                             : UTC 2018-05-16 21:30:06 / UTC 2018-05-16T12:53:52Z
    Writing application                      : mkvmerge v15.0.0 ('Duel with the Devil') 64-bit
    Writing library                          : libebml v1.3.5 + libmatroska v1.4.5 / Lavf57.7.2

    Video
    ID                                       : 1
    Format                                   : AVC
    Format/Info                              : Advanced Video Codec
    Format profile                           : High@L4.1
    Format settings                          : CABAC / 4 Ref Frames
    Format settings, CABAC                   : Yes
    Format settings, RefFrames               : 4 frames
    Codec ID                                 : V_MPEG4/ISO/AVC
    Duration                                 : 1 h 54 min
    Bit rate                                 : 4 426 kb/s
    Width                                    : 1 920 pixels
    Height                                   : 1 080 pixels
    Display aspect ratio                     : 16:9
    Frame rate mode                          : Constant
    Frame rate                               : 23.976 (24000/1001) FPS
    Color space                              : YUV
    Chroma subsampling                       : 4:2:0
    Bit depth                                : 8 bits
    Scan type                                : Progressive
    Bits/(Pixel*Frame)                       : 0.089
    Stream size                              : 3.53 GiB (66%)
    Title                                    : Amigos de armas (2016) Full 1080p Latino
    Writing library                          : x264 core 148 r2708 86b7198
    Encoding settings                        : cabac=1 / ref=4 / deblock=1:0:0 / analyse=0x3:0x133 / me=esa / subme=9 / psy=1 / psy_rd=1.00:0.00 / mixed_ref=1 / me_range=16 / chroma_me=1 / trellis=2 / 8x8dct=1 / cqm=0 / deadzone=21,11 / fast_pskip=1 / chroma_qp_offset=-2 / threads=34 / lookahead_threads=2 / sliced_threads=0 / nr=0 / decimate=1 / interlaced=0 / bluray_compat=0 / constrained_intra=0 / bframes=3 / b_pyramid=2 / b_adapt=2 / b_bias=0 / direct=3 / weightb=1 / open_gop=0 / weightp=2 / keyint=240 / keyint_min=24 / scenecut=40 / intra_refresh=0 / rc_lookahead=60 / rc=crf / mbtree=1 / crf=20.0 / qcomp=0.60 / qpmin=0 / qpmax=69 / qpstep=4 / vbv_maxrate=62500 / vbv_bufsize=78125 / crf_max=0.0 / nal_hrd=none / filler=0 / ip_ratio=1.40 / aq=1:1.00
    Language                                 : English
    Default                                  : Yes
    Forced                                   : No
    Color range                              : Limited
    Color primaries                          : BT.709
    Transfer characteristics                 : BT.709
    Matrix coefficients                      : BT.709
    Statistics Tags Issue                    : mkvmerge v15.0.0 ('Duel with the Devil') 64-bit 2018-05-16 21:30:06 / mkvmerge v15.0.0 ('Duel with the Devil') 64-bit 2018-05-16 21:30:06 / UTC 2018-05-16T12:53:52Z
    FromStats_BitRate                        : 4529819
    FromStats_Duration                       : 01:54:12.888000000
    FromStats_FrameCount                     : 164305
    FromStats_StreamSize                     : 3880292884

    Audio #1
    ID                                       : 2
    Format                                   : AC-3
    Format/Info                              : Audio Coding 3
    Format settings, Endianness              : Big
    Codec ID                                 : A_AC3
    Duration                                 : 1 h 54 min
    Bit rate mode                            : Constant
    Bit rate                                 : 640 kb/s
    Channel(s)                               : 6 channels
    Channel positions                        : Front: L C R, Side: L R, LFE
    Sampling rate                            : 48.0 kHz
    Frame rate                               : 31.250 FPS (1536 SPF)
    Bit depth                                : 16 bits
    Compression mode                         : Lossy
    Stream size                              : 523 MiB (10%)
    Language                                 : Spanish
    Service kind                             : Complete Main
    Default                                  : Yes
    Forced                                   : No
    Statistics Tags Issue                    : mkvmerge v15.0.0 ('Duel with the Devil') 64-bit 2018-05-16 21:30:06 / mkvmerge v15.0.0 ('Duel with the Devil') 64-bit 2018-05-16 21:30:06 / UTC 2018-05-16T12:53:52Z
    FromStats_BitRate                        : 640000
    FromStats_Duration                       : 01:54:12.896000000
    FromStats_FrameCount                     : 214153
    FromStats_StreamSize                     : 548231680

    Audio #2
    ID                                       : 3
    Format                                   : DTS
    Format/Info                              : Digital Theater Systems
    Mode                                     : 16
    Format settings, Endianness              : Big
    Codec ID                                 : A_DTS
    Duration                                 : 1 h 54 min
    Bit rate mode                            : Constant
    Bit rate                                 : 1 509 kb/s
    Channel(s)                               : 6 channels
    Channel positions                        : Front: L C R, Side: L R, LFE
    Sampling rate                            : 48.0 kHz
    Frame rate                               : 93.750 FPS (512 SPF)
    Bit depth                                : 24 bits
    Compression mode                         : Lossy
    Stream size                              : 1.20 GiB (22%)
    Language                                 : English
    Default                                  : No
    Forced                                   : No
    Statistics Tags Issue                    : mkvmerge v15.0.0 ('Duel with the Devil') 64-bit 2018-05-16 21:30:06 / mkvmerge v15.0.0 ('Duel with the Devil') 64-bit 2018-05-16 21:30:06 / UTC 2018-05-16T12:53:52Z
    FromStats_BitRate                        : 1508999
    FromStats_Duration                       : 01:54:12.886000000
    FromStats_FrameCount                     : 642458
    FromStats_StreamSize                     : 1292625496

    Text #1
    ID                                       : 4
    Format                                   : PGS
    Muxing mode                              : zlib
    Codec ID                                 : S_HDMV/PGS
    Codec ID/Info                            : Picture based subtitle format used on BDs/HD-DVDs
    Language                                 : English
    Default                                  : No
    Forced                                   : No
    Statistics Tags Issue                    : mkvmerge v15.0.0 ('Duel with the Devil') 64-bit 2018-05-16 21:30:06 / mkvmerge v15.0.0 ('Duel with the Devil') 64-bit 2018-05-16 21:30:06 / UTC 2018-05-16T12:53:52Z
    FromStats_BitRate                        : 46663
    FromStats_Duration                       : 01:53:19.334000000
    FromStats_FrameCount                     : 3872
    FromStats_StreamSize                     : 39659899

    Text #2
    ID                                       : 5
    Format                                   : PGS
    Muxing mode                              : zlib
    Codec ID                                 : S_HDMV/PGS
    Codec ID/Info                            : Picture based subtitle format used on BDs/HD-DVDs
    Language                                 : Spanish
    Default                                  : No
    Forced                                   : No
    Statistics Tags Issue                    : mkvmerge v15.0.0 ('Duel with the Devil') 64-bit 2018-05-16 21:30:06 / mkvmerge v15.0.0 ('Duel with the Devil') 64-bit 2018-05-16 21:30:06 / UTC 2018-05-16T12:53:52Z
    FromStats_BitRate                        : 41686
    FromStats_Duration                       : 01:53:18.917000000
    FromStats_FrameCount                     : 3389
    FromStats_StreamSize                     : 35427558

    Text #3
    ID                                       : 6
    Format                                   : PGS
    Muxing mode                              : zlib
    Codec ID                                 : S_HDMV/PGS
    Codec ID/Info                            : Picture based subtitle format used on BDs/HD-DVDs
    Title                                    : Forzados
    Language                                 : Spanish
    Default                                  : Yes
    Forced                                   : Yes
    Statistics Tags Issue                    : mkvmerge v15.0.0 ('Duel with the Devil') 64-bit 2018-05-16 21:30:06 / mkvmerge v15.0.0 ('Duel with the Devil') 64-bit 2018-05-16 21:30:06 / UTC 2018-05-16T12:53:52Z
    FromStats_BitRate                        : 368
    FromStats_Duration                       : 01:37:35.474000000
    FromStats_FrameCount                     : 28
    FromStats_StreamSize                     : 269672

    Menu
    00:00:00.000                             : :Chapter 1
    00:10:13.780                             : :Chapter 2
    00:19:00.931                             : :Chapter 3
    00:30:21.111                             : :Chapter 4
    00:40:02.525                             : :Chapter 5
    00:50:56.178                             : :Chapter 6
    00:59:34.362                             : :Chapter 7
    01:10:59.380                             : :Chapter 8
    01:20:08.929                             : :Chapter 9
    01:32:06.021                             : :Chapter 10
    01:39:36.220                             : :Chapter 11
    01:48:19.118                             : :Chapter 12

  • Peso: 5.35 GiB

Sinopsis

Historia de dos jóvenes a los que el Pentágono pagó 300 millones de dólares para armar a los aliados americanos en Afganistán

Ficha técnica

Video trailer de la película

Enlaces de descarga

Rip de Bluray

Descargar Amigos de armas (2016) Full 1080p Latino




Aportes de DPeliculasHDmega la pass es:dpeliculashdmega.org Aportes de CinemaniaHD la pass es:cinemaniahdd.com

Películas relacionadas

  • Los Gustos y Los Colores (2018) NF 1080p Latino

    2018
    Los Gustos y Los Colores (2018) NF 1080p Latino

    0.0 1h 35m 2018

    Justo cuando Simone se anima a contarle a su conservadora familia judía que es lesbiana, se siente atraída...

    Director: Myriam Aziza

    Género: Comedia

    Actores: Stéphane Debac

  • Luke Cage (2018) Temporada 2 NF 1080p Latino

    2018
    Luke Cage (2018) Temporada 2 NF 1080p Latino

    1.0 0h 46m 2018

    De acuerdo a la sinopsis oficial de la segunda temporada, Luke Cage se ha convertido en un héroe reconocido...

    Director: Cheo Hodari Coker

    Género: Action & Adventure

    Actores: Theo Rossi

  • Luke Cage (2016) Temporada 1 NF 1080p Latino

    2016
    Luke Cage (2016) Temporada 1 NF 1080p Latino

    1.0 0h 46m 2016

    Como consecuencia de un experimento fallido, Luke Cage (Mike Colter) ha desarrollado una piel indestructible...

    Director: Cheo Hodari Coker

    Género: Action & Adventure

    Actores: Theo Rossi

  • The lovers (2017) 1080p Latino

    2017
    The lovers (2017) 1080p Latino

    1.0 1h 37m 2017

    Mary y Michael forman un matrimonio de mediana edad que tras años de rutina ambos tienen un amante,...

    Director: Azazel Jacobs

    Género: 1080p Portada Negra

    Actores: Tyler Ross

  • Lady Bird (2017) Full 1080p Latino

    2017
    Lady Bird (2017) Full 1080p Latino

    5.0 1h 34m 2017

    Sacramento, California, año 2002. Una joven llamada Christine McPherson (Saoirse Ronan), apodada como...

    Director: Jonas Spaccarotelli

    Género: Comedia

    Actores: Tracy Letts

Comentarios 0