American Pie 3: La boda (2003) [UNRATED] Full 1080p Latino

921 vistas
1 estrella2 estrellas3 estrellas4 estrellas5 estrellas (4 votos, promedio: 4,00 de 5)
Cargando…

Información de American Pie 3: La boda (2003) [UNRATED] Full 1080p Latino

Datos de la película

  • Calidad: Full 1080p
  • Audio: Español Latino AC3 5.1 BLURAY - Ingles DTS 5.1 BLURAY
  • Subtitulos: Español Latino PGS - Ingles PGS
  • Resolución: 1920X1080p
  • Formato: MKV
  • Codec: H.264
  • Encoder: Dracarys
  • Mediainfo: Clic para Mostrar Datos Ver
  • Format                                   : Matroska
    Format version                           : Version 4 / Version 2
    File size                                : 4.95 GiB
    Duration                                 : 1 h 43 min
    Overall bit rate                         : 6 850 kb/s
    Movie name                               : CinemaniaHDD.com
    Encoded date                             : UTC 2018-02-09 03:30:53 / UTC 2018-01-25T13:12:00Z
    Writing application                      : mkvmerge v15.0.0 ('Duel with the Devil') 64-bit
    Writing library                          : libebml v1.3.5 + libmatroska v1.4.5 / Lavf57.7.2

    Video
    ID                                       : 1
    Format                                   : AVC
    Format/Info                              : Advanced Video Codec
    Format profile                           : High@L4.1
    Format settings                          : CABAC / 4 Ref Frames
    Format settings, CABAC                   : Yes
    Format settings, RefFrames               : 4 frames
    Codec ID                                 : V_MPEG4/ISO/AVC
    Duration                                 : 1 h 43 min
    Bit rate                                 : 4 565 kb/s
    Width                                    : 1 920 pixels
    Height                                   : 1 080 pixels
    Display aspect ratio                     : 16:9
    Frame rate mode                          : Constant
    Frame rate                               : 23.976 (24000/1001) FPS
    Color space                              : YUV
    Chroma subsampling                       : 4:2:0
    Bit depth                                : 8 bits
    Scan type                                : Progressive
    Bits/(Pixel*Frame)                       : 0.092
    Stream size                              : 3.30 GiB (67%)
    Title                                    : American Pie 3: La boda (2003) [UNRATED] Full 1080p Latino
    Writing library                          : x264 core 148 r2708 86b7198
    Encoding settings                        : cabac=1 / ref=4 / deblock=1:0:0 / analyse=0x3:0x133 / me=esa / subme=10 / psy=1 / psy_rd=1.00:0.00 / mixed_ref=1 / me_range=24 / chroma_me=1 / trellis=2 / 8x8dct=1 / cqm=0 / deadzone=21,11 / fast_pskip=1 / chroma_qp_offset=-2 / threads=34 / lookahead_threads=5 / sliced_threads=0 / nr=0 / decimate=1 / interlaced=0 / bluray_compat=0 / constrained_intra=0 / bframes=8 / b_pyramid=2 / b_adapt=2 / b_bias=0 / direct=3 / weightb=1 / open_gop=0 / weightp=2 / keyint=240 / keyint_min=24 / scenecut=40 / intra_refresh=0 / rc_lookahead=60 / rc=crf / mbtree=1 / crf=20.0 / qcomp=0.60 / qpmin=0 / qpmax=69 / qpstep=4 / vbv_maxrate=62500 / vbv_bufsize=78125 / crf_max=0.0 / nal_hrd=none / filler=0 / ip_ratio=1.40 / aq=1:1.00
    Language                                 : English
    Default                                  : Yes
    Forced                                   : No
    Color range                              : Limited
    Color primaries                          : BT.709
    Transfer characteristics                 : BT.709
    Matrix coefficients                      : BT.709
    Statistics Tags Issue                    : mkvmerge v15.0.0 ('Duel with the Devil') 64-bit 2018-02-09 03:30:53 / mkvmerge v15.0.0 ('Duel with the Devil') 64-bit 2018-02-09 03:30:53 / UTC 2018-01-25T13:12:00Z
    FromStats_BitRate                        : 4653775
    FromStats_Duration                       : 01:43:23.197000000
    FromStats_FrameCount                     : 148728
    FromStats_StreamSize                     : 3608536027

    Audio #1
    ID                                       : 2
    Format                                   : AC-3
    Format/Info                              : Audio Coding 3
    Format settings, Endianness              : Big
    Codec ID                                 : A_AC3
    Duration                                 : 1 h 43 min
    Bit rate mode                            : Constant
    Bit rate                                 : 640 kb/s
    Channel(s)                               : 6 channels
    Channel positions                        : Front: L C R, Side: L R, LFE
    Sampling rate                            : 48.0 kHz
    Frame rate                               : 31.250 FPS (1536 SPF)
    Bit depth                                : 16 bits
    Compression mode                         : Lossy
    Stream size                              : 473 MiB (9%)
    Language                                 : Spanish
    Service kind                             : Complete Main
    Default                                  : Yes
    Forced                                   : No
    Statistics Tags Issue                    : mkvmerge v15.0.0 ('Duel with the Devil') 64-bit 2018-02-09 03:30:53 / mkvmerge v15.0.0 ('Duel with the Devil') 64-bit 2018-02-09 03:30:53 / UTC 2018-01-25T13:12:00Z
    FromStats_BitRate                        : 640000
    FromStats_Duration                       : 01:43:23.328000000
    FromStats_FrameCount                     : 193854
    FromStats_StreamSize                     : 496266240

    Audio #2
    ID                                       : 3
    Format                                   : DTS
    Format/Info                              : Digital Theater Systems
    Mode                                     : 16
    Format settings, Endianness              : Big
    Codec ID                                 : A_DTS
    Duration                                 : 1 h 43 min
    Bit rate mode                            : Constant
    Bit rate                                 : 1 509 kb/s
    Channel(s)                               : 6 channels
    Channel positions                        : Front: L C R, Side: L R, LFE
    Sampling rate                            : 48.0 kHz
    Frame rate                               : 93.750 FPS (512 SPF)
    Bit depth                                : 24 bits
    Compression mode                         : Lossy
    Stream size                              : 1.09 GiB (22%)
    Language                                 : English
    Default                                  : No
    Forced                                   : No
    Statistics Tags Issue                    : mkvmerge v15.0.0 ('Duel with the Devil') 64-bit 2018-02-09 03:30:53 / mkvmerge v15.0.0 ('Duel with the Devil') 64-bit 2018-02-09 03:30:53 / UTC 2018-01-25T13:12:00Z
    FromStats_BitRate                        : 1508999
    FromStats_Duration                       : 01:43:23.190000000
    FromStats_FrameCount                     : 581549
    FromStats_StreamSize                     : 1170076588

    Text #1
    ID                                       : 4
    Format                                   : PGS
    Muxing mode                              : zlib
    Codec ID                                 : S_HDMV/PGS
    Codec ID/Info                            : Picture based subtitle format used on BDs/HD-DVDs
    Language                                 : Spanish
    Default                                  : No
    Forced                                   : No
    Statistics Tags Issue                    : mkvmerge v15.0.0 ('Duel with the Devil') 64-bit 2018-02-09 03:30:53 / mkvmerge v15.0.0 ('Duel with the Devil') 64-bit 2018-02-09 03:30:53 / UTC 2018-01-25T13:12:00Z
    FromStats_BitRate                        : 71363
    FromStats_Duration                       : 01:37:40.485000000
    FromStats_FrameCount                     : 2962
    FromStats_StreamSize                     : 52278051

    Text #2
    ID                                       : 5
    Format                                   : PGS
    Muxing mode                              : zlib
    Codec ID                                 : S_HDMV/PGS
    Codec ID/Info                            : Picture based subtitle format used on BDs/HD-DVDs
    Language                                 : English
    Default                                  : No
    Forced                                   : No
    Statistics Tags Issue                    : mkvmerge v15.0.0 ('Duel with the Devil') 64-bit 2018-02-09 03:30:53 / mkvmerge v15.0.0 ('Duel with the Devil') 64-bit 2018-02-09 03:30:53 / UTC 2018-01-25T13:12:00Z
    FromStats_BitRate                        : 50902
    FromStats_Duration                       : 01:40:23.184000000
    FromStats_FrameCount                     : 3862
    FromStats_StreamSize                     : 38324549

    Menu
    00:00:00.000                             : :Chapter 1
    00:07:25.195                             : :Chapter 2
    00:13:58.629                             : :Chapter 3
    00:16:40.374                             : :Chapter 4
    00:20:29.520                             : :Chapter 5
    00:21:45.012                             : :Chapter 6
    00:25:00.332                             : :Chapter 7
    00:29:54.710                             : :Chapter 8
    00:33:15.827                             : :Chapter 9
    00:38:37.607                             : :Chapter 10
    00:41:17.976                             : :Chapter 11
    00:42:40.767                             : :Chapter 12
    00:59:02.414                             : :Chapter 13
    01:02:56.231                             : :Chapter 14
    01:04:55.141                             : :Chapter 15
    01:08:14.882                             : :Chapter 16
    01:11:02.383                             : :Chapter 17
    01:13:09.677                             : :Chapter 18
    01:15:58.095                             : :Chapter 19
    01:19:01.362                             : :Chapter 20
    01:23:31.715                             : :Chapter 21
    01:27:10.434                             : :Chapter 22
    01:29:21.147                             : :Chapter 23
    01:30:29.132                             : :Chapter 24
    01:33:26.601                             : :Chapter 25
    01:36:11.349                             : :Chapter 26
    01:37:18.958                             : :Chapter 27
    01:38:09.842                             : :Chapter 28

  • Peso: 4.95 GiB

Sinopsis

Los años han pasado desde que vimos por última vez al grupo de East Great Falls High. Ahora Jim y Michelle están a punto de casarse, y antes de la boda se tiene que organizar la despedida de soltero, que corre a cargo, como no, de Stifler. Para que sea perfecta, intentarán reunir de nuevo al grupo.

Ficha técnica

Video trailer de la película

Enlaces de descarga

Rip de Bluray

Descargar American Pie 3: La boda (2003) [UNRATED] Full 1080p Latino




Aportes de DPeliculasHDmega la pass es:dpeliculashdmega.org Aportes de CinemaniaHD la pass es:cinemaniahdd.com

Películas relacionadas

  • ¡Hombre al agua! (2018) 1080p Latino

    2018
    ¡Hombre al agua! (2018) 1080p Latino

    5.0 1 h 52 min 2018

    Kate es una madre soltera, trabajadora, madre de tres hijas, contratada para limpiar un yate de lujo...

    Director: Rob Greenberg

    Género: 1080p Portada Negra

    Actores: Toby Hargrave

  • El alma de la fiesta (2018) 1080p Latino

    2018
    El alma de la fiesta (2018) 1080p Latino

    0.0 1 h 44 min 2018

    Después de haber sido abandonada por su esposo, Deanna, ama de casa, decide darle un giro a su vida...

    Director: Ben Falcone

    Género: Comedia

    Actores: Yani Simone

  • Tully (2018) 1080p Latino

    2018
    Tully (2018) 1080p Latino

    0.0 1 h 35 min 2018

    La historia de una mujer con tres hijos que, incapaz de lidiar con su bebé recién nacido, contrata...

    Director: Jason Reitman

    Género: Comedia

    Actores: Stormy Ent

  • Si solo pudiera imaginar (2018) Full 1080p Latino

    2018
    Si solo pudiera imaginar (2018) Full 1080p Latino

    4.8 1 h 50 min 2018

    La historia real de la aclamada canción "I Can Only Imagine", la canción cristiana contemporánea más...

    Director: Jon Erwin

    Género: Drama

    Actores: Trace Adkins

  • El padre del año (2018) WEB-DL 1080p Latino

    2018
    El padre del año (2018) WEB-DL 1080p Latino

    0.0 1h 34m 2018

    Dos universitarios recién graduados discuten borrachos sobre quién de sus padres ganaría una pelea....

    Director: Tyler Spindel

    Género: Comedia

    Actores: Ralph Ayala

Comentarios 0