Actos de venganza (2017) 1080p Latino

983 vistas
1 estrella2 estrellas3 estrellas4 estrellas5 estrellas (Ninguna valoración todavía)
Cargando…

Información de Actos de venganza (2017) 1080p Latino

Datos de la película

  • Calidad: 1080p
  • Audio: Español Latino AC3 2.0 Netflix - Ingles AC3 5.1 BLURAY
  • Subtitulos: Español Latino SRT
  • Resolución: 1920X1040p
  • Formato: MKV
  • Codec: H.264
  • Encoder: Dracarys
  • Mediainfo: Clic para Mostrar Datos Ver
  • Format                                   : Matroska
    Format version                           : Version 4 / Version 2
    File size                                : 2.61 GiB
    Duration                                 : 1 h 27 min
    Overall bit rate                         : 4 274 kb/s
    Movie name                               : CinemaniaHDD.com
    Encoded date                             : UTC 2018-02-03 05:55:16 / UTC 2018-02-01T07:11:18Z
    Writing application                      : mkvmerge v15.0.0 ('Duel with the Devil') 64-bit
    Writing library                          : libebml v1.3.5 + libmatroska v1.4.5 / Lavf57.7.2

    Video
    ID                                       : 1
    Format                                   : AVC
    Format/Info                              : Advanced Video Codec
    Format profile                           : High@L4.1
    Format settings                          : CABAC / 4 Ref Frames
    Format settings, CABAC                   : Yes
    Format settings, RefFrames               : 4 frames
    Codec ID                                 : V_MPEG4/ISO/AVC
    Duration                                 : 1 h 27 min
    Bit rate                                 : 3 500 kb/s
    Width                                    : 1 920 pixels
    Height                                   : 1 040 pixels
    Display aspect ratio                     : 1.85:1
    Frame rate mode                          : Constant
    Frame rate                               : 23.976 (24000/1001) FPS
    Color space                              : YUV
    Chroma subsampling                       : 4:2:0
    Bit depth                                : 8 bits
    Scan type                                : Progressive
    Bits/(Pixel*Frame)                       : 0.073
    Stream size                              : 2.05 GiB (79%)
    Title                                    : Actos de venganza (2017) 1080p Latino
    Writing library                          : x264 core 148 r2708 86b7198
    Encoding settings                        : cabac=1 / ref=4 / deblock=1:0:0 / analyse=0x3:0x113 / me=umh / subme=8 / psy=1 / psy_rd=1.00:0.00 / mixed_ref=1 / me_range=16 / chroma_me=1 / trellis=1 / 8x8dct=1 / cqm=0 / deadzone=21,11 / fast_pskip=1 / chroma_qp_offset=-2 / threads=32 / lookahead_threads=5 / sliced_threads=0 / nr=0 / decimate=1 / interlaced=0 / bluray_compat=0 / constrained_intra=0 / bframes=3 / b_pyramid=2 / b_adapt=2 / b_bias=0 / direct=3 / weightb=1 / open_gop=0 / weightp=2 / keyint=240 / keyint_min=24 / scenecut=40 / intra_refresh=0 / rc_lookahead=50 / rc=abr / mbtree=1 / bitrate=3500 / ratetol=1.0 / qcomp=0.60 / qpmin=0 / qpmax=69 / qpstep=4 / vbv_maxrate=62500 / vbv_bufsize=78125 / nal_hrd=none / filler=0 / ip_ratio=1.40 / aq=1:1.00
    Language                                 : English
    Default                                  : Yes
    Forced                                   : No
    Color range                              : Limited
    Color primaries                          : BT.709
    Transfer characteristics                 : BT.709
    Matrix coefficients                      : BT.709
    Statistics Tags Issue                    : mkvmerge v15.0.0 ('Duel with the Devil') 64-bit 2018-02-03 05:55:16 / mkvmerge v15.0.0 ('Duel with the Devil') 64-bit 2018-02-03 05:55:16 / UTC 2018-02-01T07:11:18Z
    FromStats_BitRate                        : 3444896
    FromStats_Duration                       : 01:27:20.277000000
    FromStats_FrameCount                     : 125641
    FromStats_StreamSize                     : 2256526726

    Audio #1
    ID                                       : 2
    Format                                   : AC-3
    Format/Info                              : Audio Coding 3
    Format settings, Endianness              : Big
    Codec ID                                 : A_AC3
    Duration                                 : 1 h 27 min
    Bit rate mode                            : Constant
    Bit rate                                 : 192 kb/s
    Channel(s)                               : 2 channels
    Channel positions                        : Front: L R
    Sampling rate                            : 48.0 kHz
    Frame rate                               : 31.250 FPS (1536 SPF)
    Bit depth                                : 16 bits
    Compression mode                         : Lossy
    Delay relative to video                  : 15 ms
    Stream size                              : 120 MiB (4%)
    Language                                 : Spanish
    Service kind                             : Complete Main
    Default                                  : Yes
    Forced                                   : No
    Statistics Tags Issue                    : mkvmerge v15.0.0 ('Duel with the Devil') 64-bit 2018-02-03 05:55:16 / mkvmerge v15.0.0 ('Duel with the Devil') 64-bit 2018-02-03 05:55:16 / UTC 2018-02-01T07:11:18Z
    FromStats_BitRate                        : 192000
    FromStats_Duration                       : 01:27:26.176000000
    FromStats_FrameCount                     : 163943
    FromStats_StreamSize                     : 125908224

    Audio #2
    ID                                       : 3
    Format                                   : AC-3
    Format/Info                              : Audio Coding 3
    Format settings, Endianness              : Big
    Codec ID                                 : A_AC3
    Duration                                 : 1 h 27 min
    Bit rate mode                            : Constant
    Bit rate                                 : 640 kb/s
    Channel(s)                               : 6 channels
    Channel positions                        : Front: L C R, Side: L R, LFE
    Sampling rate                            : 48.0 kHz
    Frame rate                               : 31.250 FPS (1536 SPF)
    Bit depth                                : 16 bits
    Compression mode                         : Lossy
    Delay relative to video                  : -5 ms
    Stream size                              : 400 MiB (15%)
    Language                                 : English
    Service kind                             : Complete Main
    Default                                  : No
    Forced                                   : No
    Statistics Tags Issue                    : mkvmerge v15.0.0 ('Duel with the Devil') 64-bit 2018-02-03 05:55:16 / mkvmerge v15.0.0 ('Duel with the Devil') 64-bit 2018-02-03 05:55:16 / UTC 2018-02-01T07:11:18Z
    FromStats_BitRate                        : 640000
    FromStats_Duration                       : 01:27:20.224000000
    FromStats_FrameCount                     : 163757
    FromStats_StreamSize                     : 419217920

    Text
    ID                                       : 4
    Format                                   : UTF-8
    Codec ID                                 : S_TEXT/UTF8
    Codec ID/Info                            : UTF-8 Plain Text
    Language                                 : Spanish
    Default                                  : No
    Forced                                   : No
    Statistics Tags Issue                    : mkvmerge v15.0.0 ('Duel with the Devil') 64-bit 2018-02-03 05:55:16 / mkvmerge v15.0.0 ('Duel with the Devil') 64-bit 2018-02-03 05:55:16 / UTC 2018-02-01T07:11:18Z
    FromStats_BitRate                        : 28
    FromStats_Duration                       : 01:23:12.287000000
    FromStats_FrameCount                     : 527
    FromStats_StreamSize                     : 17848

    Menu
    00:00:00.000                             : :Chapter 1
    00:05:16.316                             : :Chapter 2
    00:11:00.451                             : :Chapter 3
    00:17:49.318                             : :Chapter 4
    00:24:11.450                             : :Chapter 5
    00:29:07.037                             : :Chapter 6
    00:35:14.654                             : :Chapter 7
    00:39:12.308                             : :Chapter 8
    00:46:29.287                             : :Chapter 9
    00:52:56.632                             : :Chapter 10
    01:00:37.634                             : :Chapter 11
    01:05:28.133                             : :Chapter 12
    01:09:15.902                             : :Chapter 13
    01:13:51.969                             : :Chapter 14
    01:21:32.596                             : :Chapter 15
    01:23:56.114                             : :Chapter 16

  • Peso: 2.61 GiB

Sinopsis

Un abogado transforma su cuerpo y hace un voto de silencio, que no será roto hasta que encuentre a los asesinos de su mujer e hija y lleve a cabo su venganza.

Ficha técnica

  • Titulo original: Acts of Vengeance
  • Fecha de lanzamiento: 27-10-2017 (Bulgaria, United States of America)
  • Director: Isaac Florentine
  • Género: Acción, Drama, Suspense
  • Puntuación: 0.0 0 votos
  • Duración:
    1 h 27 min

Video trailer de la película

Enlaces de descarga

Rip de Bluray

Descargar Actos de venganza (2017) 1080p Latino




Aportes de DPeliculasHDmega la pass es:dpeliculashdmega.org Aportes de CinemaniaHD la pass es:cinemaniahdd.com
Guardado en : Acción , Drama , Suspense

Películas relacionadas

  • Yo vi al diablo (2010) 1080p Latino

    2010
    Yo vi al diablo (2010) 1080p Latino

    0.0 2 h 22 min 2010

    Kyung-chul es un psicópata peligroso que mata por placer y que ha cometido varios asesinatos con unos...

    Director: Kim Jee-woon

    Género: Suspense

    Actores: Yoon Chae-yeong

  • Los extraños Cacería nocturna (2018) Full 1080p Latino

    2018
    Los extraños Cacería nocturna (2018) Full 1080p Latino

    5.0 1 h 25 min 2018

    Una familia que viaje por carretera llega a un parque de caravanas donde esperan reunirse con unos parientes...

    Director: Johannes Roberts

    Género: FULL 1080p Plateadas

    Actores: Preston Sadleir

  • Tully (2018) WEB-DL 1080p Latino

    2018
    Tully (2018) WEB-DL 1080p Latino

    5.0 1h 36m 2018

    La historia de una mujer con tres hijos que, incapaz de lidiar con su bebé recién nacido, contrata...

    Director: Jason Reitman

    Género: Comedia

    Actores: Stormy Ent

  • Proyecto Rampage (2018) 3D OU Full 1080p Latino

    2018
    Proyecto Rampage (2018) 3D OU Full 1080p Latino

    5.0 1h 47m 2018

    Davis Okoye (Dwayne Johnson) es un especialista en primates de reconocido prestigio que mantiene un vínculo...

    Director: Shane B. Scott

    Género: 3D Half OU

    Actores: Will Yun Lee

Comentarios 1
  • Omar Enrique - 07 febrero, 2018

    Mil gracias por el aporte.