Yo soy Simón (2018) WEB-DL 1080p Latino

906 vistas
1 estrella2 estrellas3 estrellas4 estrellas5 estrellas (Ninguna valoración todavía)
Cargando…

Información de Yo soy Simón (2018) WEB-DL 1080p Latino

Datos de la película

  • Calidad: WEBDL
  • Audio: Español Latino AC3 2.0 iTunes - Ingles AC3 5.1 iTunes
  • Subtitulos: Español Latino SRT
  • Resolución: 1920x802p
  • Formato: MKV
  • Codec: H.264
  • Encoder: FGT
  • Mediainfo: Clic para Mostrar Datos Ver
  • Format                                   : Matroska
    Format version                           : Version 4 / Version 2
    File size                                : 3.99 GiB
    Duration                                 : 1 h 50 min
    Overall bit rate                         : 5 175 kb/s
    Movie name                               : CinemaniaHDD.net
    Encoded date                             : UTC 2018-05-29 06:47:27
    Writing application                      : mkvmerge v15.0.0 ('Duel with the Devil') 64-bit
    Writing library                          : libebml v1.3.5 + libmatroska v1.4.5

    Video
    ID                                       : 1
    Format                                   : AVC
    Format/Info                              : Advanced Video Codec
    Format profile                           : High@L4
    Format settings                          : CABAC / 5 Ref Frames
    Format settings, CABAC                   : Yes
    Format settings, RefFrames               : 5 frames
    Codec ID                                 : V_MPEG4/ISO/AVC
    Duration                                 : 1 h 50 min
    Bit rate                                 : 4 536 kb/s
    Width                                    : 1 920 pixels
    Height                                   : 802 pixels
    Display aspect ratio                     : 2.40:1
    Frame rate mode                          : Constant
    Frame rate                               : 23.976 (24000/1001) FPS
    Color space                              : YUV
    Chroma subsampling                       : 4:2:0
    Bit depth                                : 8 bits
    Scan type                                : Progressive
    Bits/(Pixel*Frame)                       : 0.123
    Stream size                              : 3.49 GiB (88%)
    Title                                    : Yo soy Simón (2018) WEB-DL 1080p Latino
    Language                                 : English
    Default                                  : Yes
    Forced                                   : No
    Color range                              : Limited
    Color primaries                          : BT.709
    Transfer characteristics                 : BT.709
    Matrix coefficients                      : BT.709

    Audio #1
    ID                                       : 2
    Format                                   : AC-3
    Format/Info                              : Audio Coding 3
    Format settings, Endianness              : Big
    Codec ID                                 : A_AC3
    Duration                                 : 1 h 49 min
    Bit rate mode                            : Constant
    Bit rate                                 : 256 kb/s
    Channel(s)                               : 2 channels
    Channel positions                        : Front: L R
    Sampling rate                            : 48.0 kHz
    Frame rate                               : 31.250 FPS (1536 SPF)
    Bit depth                                : 16 bits
    Compression mode                         : Lossy
    Delay relative to video                  : -43 ms
    Stream size                              : 201 MiB (5%)
    Language                                 : Spanish
    Service kind                             : Complete Main
    Default                                  : Yes
    Forced                                   : No

    Audio #2
    ID                                       : 3
    Format                                   : AC-3
    Format/Info                              : Audio Coding 3
    Format settings, Endianness              : Big
    Codec ID                                 : A_AC3
    Duration                                 : 1 h 49 min
    Bit rate mode                            : Constant
    Bit rate                                 : 384 kb/s
    Channel(s)                               : 6 channels
    Channel positions                        : Front: L C R, Side: L R, LFE
    Sampling rate                            : 48.0 kHz
    Frame rate                               : 31.250 FPS (1536 SPF)
    Bit depth                                : 16 bits
    Compression mode                         : Lossy
    Delay relative to video                  : -43 ms
    Stream size                              : 301 MiB (7%)
    Language                                 : English
    Service kind                             : Complete Main
    Default                                  : No
    Forced                                   : No

    Text
    ID                                       : 4
    Format                                   : UTF-8
    Codec ID                                 : S_TEXT/UTF8
    Codec ID/Info                            : UTF-8 Plain Text
    Duration                                 : 1 h 48 min
    Bit rate                                 : 70 b/s
    Count of elements                        : 1837
    Stream size                              : 56.0 KiB (0%)
    Language                                 : Spanish
    Default                                  : No
    Forced                                   : No

    Menu
    00:00:00.000                             : en:Chapter 01
    00:04:14.796                             : en:Chapter 02
    00:08:40.061                             : en:Chapter 03
    00:13:52.123                             : en:Chapter 04
    00:18:05.042                             : en:Chapter 05
    00:25:39.329                             : en:Chapter 06
    00:29:26.139                             : en:Chapter 07
    00:33:53.698                             : en:Chapter 08
    00:42:04.438                             : en:Chapter 09
    00:47:47.948                             : en:Chapter 10
    00:54:16.044                             : en:Chapter 11
    00:59:25.436                             : en:Chapter 12
    01:02:50.390                             : en:Chapter 13
    01:05:42.145                             : en:Chapter 14
    01:09:56.399                             : en:Chapter 15
    01:17:12.501                             : en:Chapter 16
    01:20:04.673                             : en:Chapter 17
    01:22:23.687                             : en:Chapter 18
    01:24:28.561                             : en:Chapter 19
    01:27:53.849                             : en:Chapter 20
    01:32:36.631                             : en:Chapter 21
    01:38:18.431                             : en:Chapter 22
    01:41:14.190                             : en:Chapter 23
    01:45:46.337                             : en:Chapter 24

  • Peso: 3.99 GiB

Sinopsis

Simon Spier es un joven 16 años que no se atreve a revelar su homosexualidad, ya que prefiere esperar al musical que se celebra en secundaria. Pero un día, uno de sus correos electrónicos llega a manos equivocadas y las cosas se complican extraordinariamente.

Ficha técnica

  • Titulo original: Love, Simon
  • Fecha de lanzamiento: 16-03-2018 (United States of America)
  • Director: Greg Berlanti
  • Género: Comedia, Drama, Romance
  • Puntuación: 0.0 0 votos
  • Duración:
    1h 50m

Video trailer de la película

Enlaces de descarga

Rip de Bluray

Descargar Yo soy Simón (2018) WEB-DL 1080p Latino




Aportes de DPeliculasHDmega la pass es:dpeliculashdmega.org Aportes de CinemaniaHD la pass es:cinemaniahdd.com
Guardado en : Comedia , Drama , Romance

Películas relacionadas

  • Sicario (2015) Full 1080p Latino

    2015
    Sicario (2015) Full 1080p Latino

    5.0 2h 1m 2015

    En la zona fronteriza que se extiende entre Estados Unidos y México la joven Kate Macer, una idealista...

    Director: Judi Townsend

    Género: Acción

    Actores: Victor Garber

  • Fahrenheit 451 (2018) Full 1080p Latino

    2018
    Fahrenheit 451 (2018) Full 1080p Latino

    5.0 1h 36m 2018

    Michael B. Jordan y Michael Shannon protagonizan esta adaptación de HBO de la clásica novela distópica...

    Director: Ramin Bahrani

    Género: Ciencia ficción

    Actores: Tim Post

Comentarios 0