Yo soy Simón (2018) 1080p Latino

788 vistas
1 estrella2 estrellas3 estrellas4 estrellas5 estrellas (2 votos, promedio: 3,00 de 5)
Cargando…

Información de Yo soy Simón (2018) 1080p Latino

Datos de la película

  • Calidad: 1080p
  • Audio: Español Latino AC3 2.0 iTUNES - Ingles AC3 5.1 BLURAY
  • Subtitulos: Español Latino SRT- FORZADOS SRT
  • Resolución: 1920x804p
  • Formato: MKV
  • Codec: H.264
  • Encoder: Dracarys
  • Mediainfo: Clic para Mostrar Datos Ver
  • Format                                   : Matroska
    Format version                           : Version 4 / Version 2
    File size                                : 3.36 GiB
    Duration                                 : 1 h 49 min
    Overall bit rate                         : 4 380 kb/s
    Movie name                               : CinemaniaHDD.net
    Encoded date                             : UTC 2018-05-31 20:19:12 / UTC 2018-05-31T07:32:05Z
    Writing application                      : mkvmerge v15.0.0 ('Duel with the Devil') 64-bit
    Writing library                          : libebml v1.3.5 + libmatroska v1.4.5 / Lavf57.7.2

    Video
    ID                                       : 1
    Format                                   : AVC
    Format/Info                              : Advanced Video Codec
    Format profile                           : High@L4.1
    Format settings                          : CABAC / 5 Ref Frames
    Format settings, CABAC                   : Yes
    Format settings, RefFrames               : 5 frames
    Codec ID                                 : V_MPEG4/ISO/AVC
    Duration                                 : 1 h 49 min
    Bit rate                                 : 3 500 kb/s
    Width                                    : 1 920 pixels
    Height                                   : 804 pixels
    Display aspect ratio                     : 2.40:1
    Frame rate mode                          : Constant
    Frame rate                               : 23.976 (24000/1001) FPS
    Color space                              : YUV
    Chroma subsampling                       : 4:2:0
    Bit depth                                : 8 bits
    Scan type                                : Progressive
    Bits/(Pixel*Frame)                       : 0.095
    Stream size                              : 2.60 GiB (78%)
    Title                                    : Yo soy Simón (2018) 1080p Latino
    Writing library                          : x264 core 148 r2708 86b7198
    Encoding settings                        : cabac=1 / ref=5 / deblock=1:0:0 / analyse=0x3:0x113 / me=umh / subme=8 / psy=1 / psy_rd=1.00:0.00 / mixed_ref=1 / me_range=16 / chroma_me=1 / trellis=1 / 8x8dct=1 / cqm=0 / deadzone=21,11 / fast_pskip=1 / chroma_qp_offset=-2 / threads=25 / lookahead_threads=4 / sliced_threads=0 / nr=0 / decimate=1 / interlaced=0 / bluray_compat=0 / constrained_intra=0 / bframes=3 / b_pyramid=2 / b_adapt=2 / b_bias=0 / direct=3 / weightb=1 / open_gop=0 / weightp=2 / keyint=240 / keyint_min=24 / scenecut=40 / intra_refresh=0 / rc_lookahead=50 / rc=abr / mbtree=1 / bitrate=3500 / ratetol=1.0 / qcomp=0.60 / qpmin=0 / qpmax=69 / qpstep=4 / vbv_maxrate=62500 / vbv_bufsize=78125 / nal_hrd=none / filler=0 / ip_ratio=1.40 / aq=1:1.00
    Language                                 : English
    Default                                  : Yes
    Forced                                   : No
    Color range                              : Limited
    Color primaries                          : BT.709
    Transfer characteristics                 : BT.709
    Matrix coefficients                      : BT.709
    Statistics Tags Issue                    : mkvmerge v15.0.0 ('Duel with the Devil') 64-bit 2018-05-31 20:19:12 / mkvmerge v15.0.0 ('Duel with the Devil') 64-bit 2018-05-31 20:19:12 / UTC 2018-05-31T07:32:05Z
    FromStats_BitRate                        : 3482166
    FromStats_Duration                       : 01:49:42.576000000
    FromStats_FrameCount                     : 157824
    FromStats_StreamSize                     : 2865203101

    Audio #1
    ID                                       : 2
    Format                                   : AC-3
    Format/Info                              : Audio Coding 3
    Format settings, Endianness              : Big
    Codec ID                                 : A_AC3
    Duration                                 : 1 h 49 min
    Bit rate mode                            : Constant
    Bit rate                                 : 256 kb/s
    Channel(s)                               : 2 channels
    Channel positions                        : Front: L R
    Sampling rate                            : 48.0 kHz
    Frame rate                               : 31.250 FPS (1536 SPF)
    Bit depth                                : 16 bits
    Compression mode                         : Lossy
    Delay relative to video                  : 19 ms
    Stream size                              : 201 MiB (6%)
    Language                                 : Spanish
    Service kind                             : Complete Main
    Default                                  : Yes
    Forced                                   : No
    Statistics Tags Issue                    : mkvmerge v15.0.0 ('Duel with the Devil') 64-bit 2018-05-31 20:19:12 / mkvmerge v15.0.0 ('Duel with the Devil') 64-bit 2018-05-31 20:19:12 / UTC 2018-05-31T07:32:05Z
    FromStats_BitRate                        : 256000
    FromStats_Duration                       : 01:49:41.632000000
    FromStats_FrameCount                     : 205676
    FromStats_StreamSize                     : 210612224

    Audio #2
    ID                                       : 3
    Format                                   : AC-3
    Format/Info                              : Audio Coding 3
    Format settings, Endianness              : Big
    Codec ID                                 : A_AC3
    Duration                                 : 1 h 49 min
    Bit rate mode                            : Constant
    Bit rate                                 : 640 kb/s
    Channel(s)                               : 6 channels
    Channel positions                        : Front: L C R, Side: L R, LFE
    Sampling rate                            : 48.0 kHz
    Frame rate                               : 31.250 FPS (1536 SPF)
    Bit depth                                : 16 bits
    Compression mode                         : Lossy
    Delay relative to video                  : -5 ms
    Stream size                              : 502 MiB (15%)
    Language                                 : English
    Service kind                             : Complete Main
    Default                                  : No
    Forced                                   : No
    Statistics Tags Issue                    : mkvmerge v15.0.0 ('Duel with the Devil') 64-bit 2018-05-31 20:19:12 / mkvmerge v15.0.0 ('Duel with the Devil') 64-bit 2018-05-31 20:19:12 / UTC 2018-05-31T07:32:05Z
    FromStats_BitRate                        : 640000
    FromStats_Duration                       : 01:49:42.560000000
    FromStats_FrameCount                     : 205705
    FromStats_StreamSize                     : 526604800

    Text #1
    ID                                       : 4
    Format                                   : UTF-8
    Codec ID                                 : S_TEXT/UTF8
    Codec ID/Info                            : UTF-8 Plain Text
    Title                                    : Forzados
    Language                                 : Spanish
    Default                                  : Yes
    Forced                                   : Yes
    Statistics Tags Issue                    : mkvmerge v15.0.0 ('Duel with the Devil') 64-bit 2018-05-31 20:19:12 / mkvmerge v15.0.0 ('Duel with the Devil') 64-bit 2018-05-31 20:19:12 / UTC 2018-05-31T07:32:05Z
    FromStats_BitRate                        : 0
    FromStats_Duration                       : 01:47:32.078000000
    FromStats_FrameCount                     : 11
    FromStats_StreamSize                     : 231

    Text #2
    ID                                       : 5
    Format                                   : UTF-8
    Codec ID                                 : S_TEXT/UTF8
    Codec ID/Info                            : UTF-8 Plain Text
    Language                                 : Spanish
    Default                                  : No
    Forced                                   : No
    Statistics Tags Issue                    : mkvmerge v15.0.0 ('Duel with the Devil') 64-bit 2018-05-31 20:19:12 / mkvmerge v15.0.0 ('Duel with the Devil') 64-bit 2018-05-31 20:19:12 / UTC 2018-05-31T07:32:05Z
    FromStats_BitRate                        : 69
    FromStats_Duration                       : 01:48:55.244000000
    FromStats_FrameCount                     : 1844
    FromStats_StreamSize                     : 57040

    Menu
    00:00:00.000                             : :00:00:00.000
    00:04:13.795                             : :00:04:13.795
    00:08:39.060                             : :00:08:39.060
    00:13:51.122                             : :00:13:51.122
    00:18:04.041                             : :00:18:04.041
    00:25:38.328                             : :00:25:38.328
    00:29:25.138                             : :00:29:25.138
    00:33:52.697                             : :00:33:52.697
    00:42:03.438                             : :00:42:03.438
    00:47:46.947                             : :00:47:46.947
    00:54:15.043                             : :00:54:15.043
    00:59:24.436                             : :00:59:24.436
    01:02:49.391                             : :01:02:49.391
    01:05:41.146                             : :01:05:41.146
    01:09:55.400                             : :01:09:55.400
    01:17:11.502                             : :01:17:11.502
    01:20:03.674                             : :01:20:03.674
    01:22:22.688                             : :01:22:22.688
    01:24:27.646                             : :01:24:27.562
    01:27:52.851                             : :01:27:52.851
    01:32:35.633                             : :01:32:35.633
    01:38:17.433                             : :01:38:17.433
    01:41:13.192                             : :01:41:13.192
    01:45:45.422                             : :01:45:45.339

  • Peso: 3.36 GiB

Sinopsis

Simon Spier es un joven 16 años que no se atreve a revelar su homosexualidad, ya que prefiere esperar al musical que se celebra en secundaria. Pero un día, uno de sus correos electrónicos llega a manos equivocadas y las cosas se complican extraordinariamente.

Ficha técnica

  • Titulo original: Love, Simon
  • Fecha de lanzamiento: 16-03-2018 (United States of America)
  • Director: Greg Berlanti
  • Género: Comedia, Drama, Romance
  • Puntuación: 3.0 2 votos
  • Duración:
    1 h 49 min

Video trailer de la película

Enlaces de descarga

Rip de Bluray

Descargar Yo soy Simón (2018) 1080p Latino




Aportes de DPeliculasHDmega la pass es:dpeliculashdmega.org Aportes de CinemaniaHD la pass es:cinemaniahdd.com
Guardado en : Comedia , Drama , Romance

Películas relacionadas

Comentarios 0