Yo, robot (2004) [Open Matte] Full 1080p Latino

1.694 vistas
1 estrella2 estrellas3 estrellas4 estrellas5 estrellas (4 votos, promedio: 4,00 de 5)
Cargando…

Información de Yo, robot (2004) [Open Matte] Full 1080p Latino

Datos de la película

  • Calidad: Full 1080p
  • Audio: Español Latino DTS 5.1 BLURAY - Ingles DTS 5.1 BLURAY
  • Subtitulos: Español Latino PGS
  • Resolución: 1920X1080p
  • Formato: MKV
  • Codec: H.264
  • Encoder: Dracarys
  • Mediainfo: Clic para Mostrar Datos Ver
  • Format                                   : Matroska
    Format version                           : Version 4 / Version 2
    File size                                : 7.07 GiB
    Duration                                 : 1 h 54 min
    Overall bit rate                         : 8 826 kb/s
    Movie name                               : CinemaniaHDD.com
    Encoded date                             : UTC 2018-01-27 05:01:29 / UTC 2018-01-27T00:12:08Z
    Writing application                      : mkvmerge v15.0.0 ('Duel with the Devil') 64-bit
    Writing library                          : libebml v1.3.5 + libmatroska v1.4.5 / Lavf57.7.2

    Video
    ID                                       : 1
    Format                                   : AVC
    Format/Info                              : Advanced Video Codec
    Format profile                           : High@L4.1
    Format settings                          : CABAC / 4 Ref Frames
    Format settings, CABAC                   : Yes
    Format settings, RefFrames               : 4 frames
    Codec ID                                 : V_MPEG4/ISO/AVC
    Duration                                 : 1 h 54 min
    Bit rate                                 : 6 374 kb/s
    Width                                    : 1 920 pixels
    Height                                   : 1 080 pixels
    Display aspect ratio                     : 16:9
    Frame rate mode                          : Constant
    Frame rate                               : 23.976 (24000/1001) FPS
    Color space                              : YUV
    Chroma subsampling                       : 4:2:0
    Bit depth                                : 8 bits
    Scan type                                : Progressive
    Bits/(Pixel*Frame)                       : 0.128
    Stream size                              : 5.11 GiB (72%)
    Title                                    : Yo, robot (2004) [Open Matte] Full 1080p Latino
    Writing library                          : x264 core 148 r2708 86b7198
    Encoding settings                        : cabac=1 / ref=4 / deblock=1:0:0 / analyse=0x3:0x133 / me=esa / subme=10 / psy=1 / psy_rd=1.00:0.00 / mixed_ref=1 / me_range=24 / chroma_me=1 / trellis=2 / 8x8dct=1 / cqm=0 / deadzone=21,11 / fast_pskip=1 / chroma_qp_offset=-2 / threads=34 / lookahead_threads=5 / sliced_threads=0 / nr=0 / decimate=1 / interlaced=0 / bluray_compat=0 / constrained_intra=0 / bframes=8 / b_pyramid=2 / b_adapt=2 / b_bias=0 / direct=3 / weightb=1 / open_gop=0 / weightp=2 / keyint=240 / keyint_min=24 / scenecut=40 / intra_refresh=0 / rc_lookahead=60 / rc=crf / mbtree=1 / crf=20.0 / qcomp=0.60 / qpmin=0 / qpmax=69 / qpstep=4 / vbv_maxrate=62500 / vbv_bufsize=78125 / crf_max=0.0 / nal_hrd=none / filler=0 / ip_ratio=1.40 / aq=1:1.00
    Language                                 : English
    Default                                  : Yes
    Forced                                   : No
    Color range                              : Limited
    Color primaries                          : BT.709
    Transfer characteristics                 : BT.709
    Matrix coefficients                      : BT.709
    Statistics Tags Issue                    : mkvmerge v15.0.0 ('Duel with the Devil') 64-bit 2018-01-27 05:01:29 / mkvmerge v15.0.0 ('Duel with the Devil') 64-bit 2018-01-27 05:01:29 / UTC 2018-01-27T00:12:08Z
    FromStats_BitRate                        : 6528325
    FromStats_Duration                       : 01:54:44.878000000
    FromStats_FrameCount                     : 165072
    FromStats_StreamSize                     : 5618340630

    Audio #1
    ID                                       : 2
    Format                                   : DTS
    Format/Info                              : Digital Theater Systems
    Mode                                     : 16
    Format settings, Endianness              : Big
    Codec ID                                 : A_DTS
    Duration                                 : 1 h 54 min
    Bit rate mode                            : Constant
    Bit rate                                 : 768 kb/s
    Channel(s)                               : 6 channels
    Channel positions                        : Front: L C R, Side: L R, LFE
    Sampling rate                            : 48.0 kHz
    Frame rate                               : 93.750 FPS (512 SPF)
    Bit depth                                : 24 bits
    Compression mode                         : Lossy
    Stream size                              : 630 MiB (9%)
    Language                                 : Spanish
    Default                                  : Yes
    Forced                                   : No
    Statistics Tags Issue                    : mkvmerge v15.0.0 ('Duel with the Devil') 64-bit 2018-01-27 05:01:29 / mkvmerge v15.0.0 ('Duel with the Devil') 64-bit 2018-01-27 05:01:29 / UTC 2018-01-27T00:12:08Z
    FromStats_BitRate                        : 767999
    FromStats_Duration                       : 01:54:44.886000000
    FromStats_FrameCount                     : 645458
    FromStats_StreamSize                     : 660948992

    Audio #2
    ID                                       : 3
    Format                                   : DTS
    Format/Info                              : Digital Theater Systems
    Mode                                     : 16
    Format settings, Endianness              : Big
    Codec ID                                 : A_DTS
    Duration                                 : 1 h 54 min
    Bit rate mode                            : Constant
    Bit rate                                 : 1 509 kb/s
    Channel(s)                               : 6 channels
    Channel positions                        : Front: L C R, Side: L R, LFE
    Sampling rate                            : 48.0 kHz
    Frame rate                               : 93.750 FPS (512 SPF)
    Bit depth                                : 24 bits
    Compression mode                         : Lossy
    Stream size                              : 1.21 GiB (17%)
    Language                                 : English
    Default                                  : No
    Forced                                   : No
    Statistics Tags Issue                    : mkvmerge v15.0.0 ('Duel with the Devil') 64-bit 2018-01-27 05:01:29 / mkvmerge v15.0.0 ('Duel with the Devil') 64-bit 2018-01-27 05:01:29 / UTC 2018-01-27T00:12:08Z
    FromStats_BitRate                        : 1508999
    FromStats_Duration                       : 01:54:44.886000000
    FromStats_FrameCount                     : 645458
    FromStats_StreamSize                     : 1298661496

    Text
    ID                                       : 4
    Format                                   : PGS
    Muxing mode                              : zlib
    Codec ID                                 : S_HDMV/PGS
    Codec ID/Info                            : Picture based subtitle format used on BDs/HD-DVDs
    Language                                 : Spanish
    Default                                  : No
    Forced                                   : No
    Statistics Tags Issue                    : mkvmerge v15.0.0 ('Duel with the Devil') 64-bit 2018-01-27 05:01:29 / mkvmerge v15.0.0 ('Duel with the Devil') 64-bit 2018-01-27 05:01:29 / UTC 2018-01-27T00:12:08Z
    FromStats_BitRate                        : 37191
    FromStats_Duration                       : 01:53:42.483000000
    FromStats_FrameCount                     : 2252
    FromStats_StreamSize                     : 31717556

    Menu
    00:00:00.000                             : :Chapter 1
    00:01:46.940                             : :Chapter 2
    00:03:30.252                             : :Chapter 3
    00:06:18.545                             : :Chapter 4
    00:07:57.519                             : :Chapter 5
    00:10:19.702                             : :Chapter 6
    00:12:11.231                             : :Chapter 7
    00:15:35.309                             : :Chapter 8
    00:17:47.984                             : :Chapter 9
    00:22:51.871                             : :Chapter 10
    00:26:14.031                             : :Chapter 11
    00:26:59.243                             : :Chapter 12
    00:33:23.168                             : :Chapter 13
    00:36:03.578                             : :Chapter 14
    00:41:23.523                             : :Chapter 15
    00:46:07.890                             : :Chapter 16
    00:49:06.026                             : :Chapter 17
    00:52:14.506                             : :Chapter 18
    00:55:22.277                             : :Chapter 19
    00:58:31.883                             : :Chapter 20
    01:00:06.812                             : :Chapter 21
    01:01:08.665                             : :Chapter 22
    01:07:56.114                             : :Chapter 23
    01:08:18.219                             : :Chapter 24
    01:10:24.303                             : :Chapter 25
    01:13:17.226                             : :Chapter 26
    01:16:54.026                             : :Chapter 27
    01:18:39.465                             : :Chapter 28
    01:20:14.226                             : :Chapter 29
    01:21:18.290                             : :Chapter 30
    01:21:57.454                             : :Chapter 31
    01:27:29.536                             : :Chapter 32
    01:28:57.916                             : :Chapter 33
    01:32:59.657                             : :Chapter 34
    01:34:45.138                             : :Chapter 35
    01:38:09.467                             : :Chapter 36
    01:41:10.898                             : :Chapter 37
    01:44:15.416                             : :Chapter 38
    01:45:02.755                             : :Chapter 39

  • Peso: 7.07 GiB

Sinopsis

En el año 2035, los robots son unos dispositivos que usamos todos los días y en quienes confiamos, excepto un detective paranoico (Smith), investigando lo que solo él cree que es un crimen perpetrado por un robot. El caso lo lleva a descubrir algo aún peor que amenaza la raza humana. Will Smith protagoniza este thriller de acción inspirado en la clásica colección de relatos cortos de Isaac Asimov, y llevado al cine por el dinámico y visionario director Alex Proyas (Dark City, El cuervo). En esta película se emplean las más modernas y espectaculares técnicas de efectos visuales para dar vida al mundo de los robots.

Ficha técnica

Video trailer de la película

Enlaces de descarga

Rip de Bluray

Descargar Yo, robot (2004) [Open Matte] Full 1080p Latino




Aportes de DPeliculasHDmega la pass es:dpeliculashdmega.org Aportes de CinemaniaHD la pass es:cinemaniahdd.com

Películas relacionadas

  • Si solo pudiera imaginar (2018) Full 1080p Latino

    2018
    Si solo pudiera imaginar (2018) Full 1080p Latino

    5.0 1 h 50 min 2018

    La historia real de la aclamada canción "I Can Only Imagine", la canción cristiana contemporánea más...

    Director: Jon Erwin

    Género: Drama

    Actores: Trace Adkins

  • El Justiciero (2014) Full 1080p Latino

    2014
    El Justiciero (2014) Full 1080p Latino

    4.0 2 h 12 min 2014

    Robert McCall, un antiguo agente de la CIA que lleva ahora una vida tranquila, abandona su retiro para...

    Director: Deirdre Horgan

    Género: Acción

    Actores: Yan Dron

  • James Bond Live and Let Die (1973) Full 1080p Latino

    1973
    James Bond Live and Let Die (1973) Full 1080p Latino

    0.0 2 h 1 min 1973

    En tan sólo veinticuatro horas, tres agentes del servicio secreto británico que investigaban una red...

    Director: Guy Hamilton

    Género: Acción

    Actores: Yaphet Kotto

Comentarios 9
  • slash - 28 enero, 2018

    Muchas gracias.

  • Gerrard - 28 enero, 2018

    Perdonen la ignorancia pero… que es open matte?

    • Dracarys - 28 enero, 2018

      Open matte un Un formato de imagen que ocupa toda la pantalla. Asi como en las peliculas IMAX pero en este caso el 100% de la pelicula esta full pantalla es decir Sin franjas negras!

  • Tekorei - 27 enero, 2018

    OPEN MATTE!!! Genial muchas gracias

  • Miguel Eduardo - 27 enero, 2018

    Excelente aporte. Recomiendo al 100% la descarga por Google Drive.

  • cristian - 27 enero, 2018

    genial q bueno este formato sin las franjas negras

  • Altair - 27 enero, 2018

    rayos! creí que ninguna pagina pondría las películas en open matte gracias. ojala y sigan publicando mas en este formato

    • Dracarys - 27 enero, 2018

      Se vienen muchas mas en este Formato MUCHAS!!!

      • #Cinefilo - 27 enero, 2018

        Los Amoooooooooooooo :v , Son los Mejores