X-Men Apocalypse (2016) Full 1080p Latino

1.090 vistas
1 estrella2 estrellas3 estrellas4 estrellas5 estrellas (1 votos, promedio: 1,00 de 5)
Cargando…

Información de X-Men Apocalypse (2016) Full 1080p Latino

Datos de la película

  • Calidad: Full 1080p
  • Audio: Español Latino AC3 5.1 BLURAY - Ingles DTS 5.1 BLURAY
  • Subtitulos: Español Latino PGS - Ingles PGS
  • Resolución: 1920x1080p
  • Formato: MKV
  • Codec: H.264
  • Encoder: Dracarys
  • Mediainfo: Clic para Mostrar Datos Ver
  • Format                                   : Matroska
    Format version                           : Version 4 / Version 2
    File size                                : 6.10 GiB
    Duration                                 : 2 h 23 min
    Overall bit rate                         : 6 065 kb/s
    Movie name                               : CinemaniaHDD.com
    Encoded date                             : UTC 2018-03-21 00:54:17 / UTC 2018-03-18T06:00:29Z
    Writing application                      : mkvmerge v15.0.0 ('Duel with the Devil') 64-bit
    Writing library                          : libebml v1.3.5 + libmatroska v1.4.5 / Lavf57.7.2

    Video
    ID                                       : 1
    Format                                   : AVC
    Format/Info                              : Advanced Video Codec
    Format profile                           : High@L4.1
    Format settings                          : CABAC / 4 Ref Frames
    Format settings, CABAC                   : Yes
    Format settings, RefFrames               : 4 frames
    Codec ID                                 : V_MPEG4/ISO/AVC
    Duration                                 : 2 h 23 min
    Bit rate                                 : 3 987 kb/s
    Width                                    : 1 920 pixels
    Height                                   : 1 080 pixels
    Display aspect ratio                     : 16:9
    Frame rate mode                          : Constant
    Frame rate                               : 23.976 (24000/1001) FPS
    Color space                              : YUV
    Chroma subsampling                       : 4:2:0
    Bit depth                                : 8 bits
    Scan type                                : Progressive
    Bits/(Pixel*Frame)                       : 0.080
    Stream size                              : 4.01 GiB (66%)
    Title                                    : X-Men Apocalypse (2016) Full 1080p Latino
    Writing library                          : x264 core 148 r2708 86b7198
    Encoding settings                        : cabac=1 / ref=4 / deblock=1:0:0 / analyse=0x3:0x133 / me=esa / subme=9 / psy=1 / psy_rd=1.00:0.00 / mixed_ref=1 / me_range=16 / chroma_me=1 / trellis=2 / 8x8dct=1 / cqm=0 / deadzone=21,11 / fast_pskip=1 / chroma_qp_offset=-2 / threads=34 / lookahead_threads=2 / sliced_threads=0 / nr=0 / decimate=1 / interlaced=0 / bluray_compat=0 / constrained_intra=0 / bframes=3 / b_pyramid=2 / b_adapt=2 / b_bias=0 / direct=3 / weightb=1 / open_gop=0 / weightp=2 / keyint=240 / keyint_min=24 / scenecut=40 / intra_refresh=0 / rc_lookahead=60 / rc=crf / mbtree=1 / crf=21.0 / qcomp=0.60 / qpmin=0 / qpmax=69 / qpstep=4 / vbv_maxrate=62500 / vbv_bufsize=78125 / crf_max=0.0 / nal_hrd=none / filler=0 / ip_ratio=1.40 / aq=1:1.00
    Language                                 : English
    Default                                  : Yes
    Forced                                   : No
    Color range                              : Limited
    Color primaries                          : BT.709
    Transfer characteristics                 : BT.709
    Matrix coefficients                      : BT.709
    Statistics Tags Issue                    : mkvmerge v15.0.0 ('Duel with the Devil') 64-bit 2018-03-21 00:54:17 / mkvmerge v15.0.0 ('Duel with the Devil') 64-bit 2018-03-21 00:54:17 / UTC 2018-03-18T06:00:29Z
    FromStats_BitRate                        : 4090708
    FromStats_Duration                       : 02:23:56.295000000
    FromStats_FrameCount                     : 207064
    FromStats_StreamSize                     : 4416070459

    Audio #1
    ID                                       : 2
    Format                                   : AC-3
    Format/Info                              : Audio Coding 3
    Format settings, Endianness              : Big
    Codec ID                                 : A_AC3
    Duration                                 : 2 h 23 min
    Bit rate mode                            : Constant
    Bit rate                                 : 448 kb/s
    Channel(s)                               : 6 channels
    Channel positions                        : Front: L C R, Side: L R, LFE
    Sampling rate                            : 48.0 kHz
    Frame rate                               : 31.250 FPS (1536 SPF)
    Bit depth                                : 16 bits
    Compression mode                         : Lossy
    Stream size                              : 461 MiB (7%)
    Language                                 : Spanish
    Service kind                             : Complete Main
    Default                                  : Yes
    Forced                                   : No
    Statistics Tags Issue                    : mkvmerge v15.0.0 ('Duel with the Devil') 64-bit 2018-03-21 00:54:17 / mkvmerge v15.0.0 ('Duel with the Devil') 64-bit 2018-03-21 00:54:17 / UTC 2018-03-18T06:00:29Z
    FromStats_BitRate                        : 448000
    FromStats_Duration                       : 02:23:56.320000000
    FromStats_FrameCount                     : 269885
    FromStats_StreamSize                     : 483633920

    Audio #2
    ID                                       : 3
    Format                                   : DTS
    Format/Info                              : Digital Theater Systems
    Format profile                           : ES Matrix / Core
    Mode                                     : 16
    Format settings, Endianness              : Big
    Codec ID                                 : A_DTS
    Duration                                 : 2 h 23 min
    Bit rate mode                            : Constant
    Bit rate                                 : 1 509 kb/s
    Channel(s)                               : 7 channels / 6 channels
    Channel positions                        : Front: L C R, Side: L R, Back: C, LFE / Front: L C R, Side: L R, LFE
    Sampling rate                            : 48.0 kHz
    Frame rate                               : 93.750 FPS (512 SPF)
    Bit depth                                : 24 bits
    Compression mode                         : Lossy
    Stream size                              : 1.52 GiB (25%)
    Language                                 : English
    Default                                  : No
    Forced                                   : No
    Statistics Tags Issue                    : mkvmerge v15.0.0 ('Duel with the Devil') 64-bit 2018-03-21 00:54:17 / mkvmerge v15.0.0 ('Duel with the Devil') 64-bit 2018-03-21 00:54:17 / UTC 2018-03-18T06:00:29Z
    FromStats_BitRate                        : 1509000
    FromStats_Duration                       : 02:23:56.288000000
    FromStats_FrameCount                     : 809652
    FromStats_StreamSize                     : 1629019824

    Text #1
    ID                                       : 4
    Format                                   : UTF-8
    Codec ID                                 : S_TEXT/UTF8
    Codec ID/Info                            : UTF-8 Plain Text
    Title                                    : SRT-Forzados
    Language                                 : Spanish
    Default                                  : Yes
    Forced                                   : Yes
    Statistics Tags Issue                    : mkvmerge v15.0.0 ('Duel with the Devil') 64-bit 2018-03-21 00:54:17 / mkvmerge v15.0.0 ('Duel with the Devil') 64-bit 2018-03-21 00:54:17 / UTC 2018-03-18T06:00:29Z
    FromStats_BitRate                        : 2
    FromStats_Duration                       : 02:20:13.780000000
    FromStats_FrameCount                     : 108
    FromStats_StreamSize                     : 2719

    Text #2
    ID                                       : 5
    Format                                   : UTF-8
    Codec ID                                 : S_TEXT/UTF8
    Codec ID/Info                            : UTF-8 Plain Text
    Title                                    : SRT-Completos
    Language                                 : Spanish
    Default                                  : No
    Forced                                   : No
    Statistics Tags Issue                    : mkvmerge v15.0.0 ('Duel with the Devil') 64-bit 2018-03-21 00:54:17 / mkvmerge v15.0.0 ('Duel with the Devil') 64-bit 2018-03-21 00:54:17 / UTC 2018-03-18T06:00:29Z
    FromStats_BitRate                        : 36
    FromStats_Duration                       : 02:22:34.545000000
    FromStats_FrameCount                     : 1406
    FromStats_StreamSize                     : 39171

    Text #3
    ID                                       : 6
    Format                                   : PGS
    Muxing mode                              : zlib
    Codec ID                                 : S_HDMV/PGS
    Codec ID/Info                            : Picture based subtitle format used on BDs/HD-DVDs
    Language                                 : English
    Default                                  : No
    Forced                                   : No
    Statistics Tags Issue                    : mkvmerge v15.0.0 ('Duel with the Devil') 64-bit 2018-03-21 00:54:17 / mkvmerge v15.0.0 ('Duel with the Devil') 64-bit 2018-03-21 00:54:17 / UTC 2018-03-18T06:00:29Z
    FromStats_BitRate                        : 25081
    FromStats_Duration                       : 02:12:20.516000000
    FromStats_FrameCount                     : 2915
    FromStats_StreamSize                     : 24895412

    Text #4
    ID                                       : 7
    Format                                   : PGS
    Muxing mode                              : zlib
    Codec ID                                 : S_HDMV/PGS
    Codec ID/Info                            : Picture based subtitle format used on BDs/HD-DVDs
    Language                                 : Spanish
    Default                                  : No
    Forced                                   : No
    Statistics Tags Issue                    : mkvmerge v15.0.0 ('Duel with the Devil') 64-bit 2018-03-21 00:54:17 / mkvmerge v15.0.0 ('Duel with the Devil') 64-bit 2018-03-21 00:54:17 / UTC 2018-03-18T06:00:29Z
    FromStats_BitRate                        : 22388
    FromStats_Duration                       : 02:22:49.436000000
    FromStats_FrameCount                     : 2816
    FromStats_StreamSize                     : 23981780

    Menu
    00:00:00.000                             : :Chapter 1
    00:08:18.790                             : :Chapter 2
    00:14:13.186                             : :Chapter 3
    00:18:07.086                             : :Chapter 4
    00:24:55.494                             : :Chapter 5
    00:30:45.344                             : :Chapter 6
    00:36:35.235                             : :Chapter 7
    00:41:00.083                             : :Chapter 8
    00:45:56.504                             : :Chapter 9
    00:49:24.295                             : :Chapter 10
    00:55:22.611                             : :Chapter 11
    00:59:36.823                             : :Chapter 12
    01:04:43.671                             : :Chapter 13
    01:12:35.852                             : :Chapter 14
    01:17:32.898                             : :Chapter 15
    01:22:18.517                             : :Chapter 16
    01:27:45.594                             : :Chapter 17
    01:34:05.807                             : :Chapter 18
    01:36:46.634                             : :Chapter 19
    01:39:50.902                             : :Chapter 20
    01:43:34.375                             : :Chapter 21
    01:49:57.382                             : :Chapter 22
    01:55:08.360                             : :Chapter 23
    01:57:21.660                             : :Chapter 24
    02:03:50.548                             : :Chapter 25
    02:07:56.711                             : :Chapter 26
    02:10:59.101                             : :Chapter 27
    02:12:54.091                             : :Chapter 28

  • Peso: 6.10 GiB

Sinopsis

Desde los albores de la civilización, fue adorado como un dios. Apocalypse, el primer y más poderoso mutante del universo X-Men de Marvel, acumuló los poderes de muchos otros mutantes, convirtiéndose en inmortal e invencible. Pero al despertar tras miles de años, se encuentra desilusionado con el mundo en que se encuentra y decide reclutar un equipo de mutantes poderosos, entre ellos a un descorazonado Magneto (Michael Fassbender), con el fin de limpiar la humanidad y crear una nueva orden mundial, sobre la cual él reinará. A medida que el destino de la tierra está en juego, Raven (Jennifer Lawrence) con la ayuda del Profesor X (James McAvoy) se unirán junto a un equipo de jóvenes X-Men para detener a su mayor enemigo y salvar así a la humanidad de la destrucción total.

Ficha técnica

Video trailer de la película

Enlaces de descarga

Rip de Bluray

Descargar X-Men Apocalypse (2016) Full 1080p Latino




Aportes de DPeliculasHDmega la pass es:dpeliculashdmega.org Aportes de CinemaniaHD la pass es:cinemaniahdd.com

Películas relacionadas

  • Si solo pudiera imaginar (2018) Full 1080p Latino

    2018
    Si solo pudiera imaginar (2018) Full 1080p Latino

    5.0 1 h 50 min 2018

    La historia real de la aclamada canción "I Can Only Imagine", la canción cristiana contemporánea más...

    Director: Jon Erwin

    Género: Drama

    Actores: Trace Adkins

  • El Justiciero (2014) Full 1080p Latino

    2014
    El Justiciero (2014) Full 1080p Latino

    4.0 2 h 12 min 2014

    Robert McCall, un antiguo agente de la CIA que lleva ahora una vida tranquila, abandona su retiro para...

    Director: Deirdre Horgan

    Género: Acción

    Actores: Yan Dron

  • James Bond Live and Let Die (1973) Full 1080p Latino

    1973
    James Bond Live and Let Die (1973) Full 1080p Latino

    0.0 2 h 1 min 1973

    En tan sólo veinticuatro horas, tres agentes del servicio secreto británico que investigaban una red...

    Director: Guy Hamilton

    Género: Acción

    Actores: Yaphet Kotto

Comentarios 1
  • ocpgaiden - 22 marzo, 2018

    Gracias por la pelicula, y esta si x-men apocalipsis