Westworld (1973) Full 1080p Latino

1.138 vistas
1 estrella2 estrellas3 estrellas4 estrellas5 estrellas (1 votos, promedio: 5,00 de 5)
Cargando…

Información de Westworld (1973) Full 1080p Latino

Datos de la película

  • Calidad: Full 1080p
  • Audio: Español Latino AC3 1.0 BLURAY - Ingles DTS 5.1 BLURAY
  • Subtitulos: Español Latino PGS - Ingles PGS
  • Resolución: 1920x1080p
  • Formato: MKV
  • Codec: H.264
  • Encoder: Dracarys
  • Mediainfo: Clic para Mostrar Datos Ver
  • Format                                   : Matroska
    Format version                           : Version 4 / Version 2
    File size                                : 6.70 GiB
    Duration                                 : 1 h 28 min
    Overall bit rate                         : 10.8 Mb/s
    Movie name                               : CinemaniaHDD.com
    Encoded date                             : UTC 2018-05-16 03:03:54 / UTC 2018-05-14T09:06:14Z
    Writing application                      : mkvmerge v15.0.0 ('Duel with the Devil') 64-bit
    Writing library                          : libebml v1.3.5 + libmatroska v1.4.5 / Lavf57.7.2

    Video
    ID                                       : 1
    Format                                   : AVC
    Format/Info                              : Advanced Video Codec
    Format profile                           : High@L4.1
    Format settings                          : CABAC / 4 Ref Frames
    Format settings, CABAC                   : Yes
    Format settings, RefFrames               : 4 frames
    Codec ID                                 : V_MPEG4/ISO/AVC
    Duration                                 : 1 h 28 min
    Bit rate                                 : 8 880 kb/s
    Width                                    : 1 920 pixels
    Height                                   : 1 080 pixels
    Display aspect ratio                     : 16:9
    Frame rate mode                          : Constant
    Frame rate                               : 23.976 (24000/1001) FPS
    Color space                              : YUV
    Chroma subsampling                       : 4:2:0
    Bit depth                                : 8 bits
    Scan type                                : Progressive
    Bits/(Pixel*Frame)                       : 0.179
    Stream size                              : 5.51 GiB (82%)
    Title                                    : Westworld (1973) Full 1080p Latino
    Writing library                          : x264 core 148 r2708 86b7198
    Encoding settings                        : cabac=1 / ref=4 / deblock=1:0:0 / analyse=0x3:0x133 / me=esa / subme=9 / psy=1 / psy_rd=1.00:0.00 / mixed_ref=1 / me_range=16 / chroma_me=1 / trellis=2 / 8x8dct=1 / cqm=0 / deadzone=21,11 / fast_pskip=1 / chroma_qp_offset=-2 / threads=34 / lookahead_threads=2 / sliced_threads=0 / nr=0 / decimate=1 / interlaced=0 / bluray_compat=0 / constrained_intra=0 / bframes=3 / b_pyramid=2 / b_adapt=2 / b_bias=0 / direct=3 / weightb=1 / open_gop=0 / weightp=2 / keyint=240 / keyint_min=24 / scenecut=40 / intra_refresh=0 / rc_lookahead=60 / rc=crf / mbtree=1 / crf=20.0 / qcomp=0.60 / qpmin=0 / qpmax=69 / qpstep=4 / vbv_maxrate=62500 / vbv_bufsize=78125 / crf_max=0.0 / nal_hrd=none / filler=0 / ip_ratio=1.40 / aq=1:1.00
    Language                                 : English
    Default                                  : Yes
    Forced                                   : No
    Color range                              : Limited
    Color primaries                          : BT.709
    Transfer characteristics                 : BT.709
    Matrix coefficients                      : BT.709
    Statistics Tags Issue                    : mkvmerge v15.0.0 ('Duel with the Devil') 64-bit 2018-05-16 03:03:54 / mkvmerge v15.0.0 ('Duel with the Devil') 64-bit 2018-05-16 03:03:54 / UTC 2018-05-14T09:06:14Z
    FromStats_BitRate                        : 9075485
    FromStats_Duration                       : 01:28:48.323000000
    FromStats_FrameCount                     : 127752
    FromStats_StreamSize                     : 6044640021

    Audio #1
    ID                                       : 2
    Format                                   : AC-3
    Format/Info                              : Audio Coding 3
    Format settings, Endianness              : Big
    Codec ID                                 : A_AC3
    Duration                                 : 1 h 28 min
    Bit rate mode                            : Constant
    Bit rate                                 : 192 kb/s
    Channel(s)                               : 1 channel
    Channel positions                        : Front: C
    Sampling rate                            : 48.0 kHz
    Frame rate                               : 31.250 FPS (1536 SPF)
    Bit depth                                : 16 bits
    Compression mode                         : Lossy
    Stream size                              : 122 MiB (2%)
    Language                                 : Spanish
    Service kind                             : Complete Main
    Default                                  : Yes
    Forced                                   : No
    Statistics Tags Issue                    : mkvmerge v15.0.0 ('Duel with the Devil') 64-bit 2018-05-16 03:03:54 / mkvmerge v15.0.0 ('Duel with the Devil') 64-bit 2018-05-16 03:03:54 / UTC 2018-05-14T09:06:14Z
    FromStats_BitRate                        : 192000
    FromStats_Duration                       : 01:28:48.384000000
    FromStats_FrameCount                     : 166512
    FromStats_StreamSize                     : 127881216

    Audio #2
    ID                                       : 3
    Format                                   : DTS
    Format/Info                              : Digital Theater Systems
    Mode                                     : 16
    Format settings, Endianness              : Big
    Codec ID                                 : A_DTS
    Duration                                 : 1 h 28 min
    Bit rate mode                            : Constant
    Bit rate                                 : 1 509 kb/s
    Channel(s)                               : 6 channels
    Channel positions                        : Front: L C R, Side: L R, LFE
    Sampling rate                            : 48.0 kHz
    Frame rate                               : 93.750 FPS (512 SPF)
    Bit depth                                : 24 bits
    Compression mode                         : Lossy
    Stream size                              : 959 MiB (14%)
    Language                                 : English
    Default                                  : No
    Forced                                   : No
    Statistics Tags Issue                    : mkvmerge v15.0.0 ('Duel with the Devil') 64-bit 2018-05-16 03:03:54 / mkvmerge v15.0.0 ('Duel with the Devil') 64-bit 2018-05-16 03:03:54 / UTC 2018-05-14T09:06:14Z
    FromStats_BitRate                        : 1508999
    FromStats_Duration                       : 01:28:48.363000000
    FromStats_FrameCount                     : 499534
    FromStats_StreamSize                     : 1005062408

    Text #1
    ID                                       : 4
    Format                                   : PGS
    Muxing mode                              : zlib
    Codec ID                                 : S_HDMV/PGS
    Codec ID/Info                            : Picture based subtitle format used on BDs/HD-DVDs
    Language                                 : English
    Default                                  : No
    Forced                                   : No
    Statistics Tags Issue                    : mkvmerge v15.0.0 ('Duel with the Devil') 64-bit 2018-05-16 03:03:54 / mkvmerge v15.0.0 ('Duel with the Devil') 64-bit 2018-05-16 03:03:54 / UTC 2018-05-14T09:06:14Z
    FromStats_BitRate                        : 18851
    FromStats_Duration                       : 01:28:29.763000000
    FromStats_FrameCount                     : 1280
    FromStats_StreamSize                     : 12512061

    Text #2
    ID                                       : 5
    Format                                   : PGS
    Muxing mode                              : zlib
    Codec ID                                 : S_HDMV/PGS
    Codec ID/Info                            : Picture based subtitle format used on BDs/HD-DVDs
    Language                                 : Spanish
    Default                                  : No
    Forced                                   : No
    Statistics Tags Issue                    : mkvmerge v15.0.0 ('Duel with the Devil') 64-bit 2018-05-16 03:03:54 / mkvmerge v15.0.0 ('Duel with the Devil') 64-bit 2018-05-16 03:03:54 / UTC 2018-05-14T09:06:14Z
    FromStats_BitRate                        : 16344
    FromStats_Duration                       : 01:28:20.003000000
    FromStats_FrameCount                     : 1235
    FromStats_StreamSize                     : 10828308

    Menu
    00:00:00.000                             : :Chapter 1
    00:02:58.345                             : :Chapter 2
    00:07:24.027                             : :Chapter 3
    00:10:16.199                             : :Chapter 4
    00:13:11.916                             : :Chapter 5
    00:17:11.739                             : :Chapter 6
    00:18:20.391                             : :Chapter 7
    00:20:02.451                             : :Chapter 8
    00:26:13.655                             : :Chapter 9
    00:28:23.202                             : :Chapter 10
    00:31:04.571                             : :Chapter 11
    00:32:29.448                             : :Chapter 12
    00:34:53.675                             : :Chapter 13
    00:36:59.467                             : :Chapter 14
    00:39:52.724                             : :Chapter 15
    00:42:23.875                             : :Chapter 16
    00:44:20.950                             : :Chapter 17
    00:45:30.061                             : :Chapter 18
    00:48:53.806                             : :Chapter 19
    00:52:26.644                             : :Chapter 20
    00:54:30.100                             : :Chapter 21
    00:58:57.826                             : :Chapter 22
    01:02:20.862                             : :Chapter 23
    01:03:39.649                             : :Chapter 24
    01:07:17.325                             : :Chapter 25
    01:11:00.214                             : :Chapter 26
    01:14:40.393                             : :Chapter 27
    01:17:45.870                             : :Chapter 28
    01:18:54.230                             : :Chapter 29
    01:20:03.841                             : :Chapter 30
    01:23:08.567                             : :Chapter 31
    01:27:04.052                             : :Chapter 32

  • Peso: 6.70 GiB

Sinopsis

En un futuro próximo existe un gigantesco parque de vacaciones dividido en tres zonas: la Roma Imperial, el Oeste americano y la Europa Medieval. Cada una de ellas reproduce con total fidelidad las características de cada época. Existe, además, la posibilidad de que quien pueda permitírse el lujo viva sus propias aventuras en la época elegida. Al parque han ido de vacaciones un par de amigos, Peter Martin (Richard Benjamin) y John Blane (James Brolin). Todo está perfectamente controlado hasta que los robots que hacen de figurantes empiezan a fallar, en concreto un implacable pistolero (Yul Brynner) diseñado para perseguir sin descanso a sus víctimas.

Ficha técnica

Video trailer de la película

Enlaces de descarga

Rip de Bluray

Descargar Westworld (1973) Full 1080p Latino




Aportes de DPeliculasHDmega la pass es:dpeliculashdmega.org Aportes de CinemaniaHD la pass es:cinemaniahdd.com

Películas relacionadas

  • Luke Cage (2018) Temporada 2 NF 1080p Latino

    2018
    Luke Cage (2018) Temporada 2 NF 1080p Latino

    1.0 0h 46m 2018

    De acuerdo a la sinopsis oficial de la segunda temporada, Luke Cage se ha convertido en un héroe reconocido...

    Director: Cheo Hodari Coker

    Género: Action & Adventure

    Actores: Theo Rossi

  • Luke Cage (2016) Temporada 1 NF 1080p Latino

    2016
    Luke Cage (2016) Temporada 1 NF 1080p Latino

    1.0 0h 46m 2016

    Como consecuencia de un experimento fallido, Luke Cage (Mike Colter) ha desarrollado una piel indestructible...

    Director: Cheo Hodari Coker

    Género: Action & Adventure

    Actores: Theo Rossi

  • Lady Bird (2017) Full 1080p Latino

    2017
    Lady Bird (2017) Full 1080p Latino

    5.0 1h 34m 2017

    Sacramento, California, año 2002. Una joven llamada Christine McPherson (Saoirse Ronan), apodada como...

    Director: Jonas Spaccarotelli

    Género: Comedia

    Actores: Tracy Letts

  • Plan de escape (2013) Full 1080p Latino

    2013
    Plan de escape (2013) Full 1080p Latino

    3.0 1h 56m 2013

    El experto en seguridad Ray Breslin prueba sus teorías poco convencionales en diseño de prisiones elaborando...

    Director: Mikael Håfström

    Género: Acción

    Actores: Vinnie Jones

Comentarios 0