Wanted (Se busca) (2008) Full 1080p Latino

1.413 vistas
1 estrella2 estrellas3 estrellas4 estrellas5 estrellas (Ninguna valoración todavía)
Cargando…

Información de Wanted (Se busca) (2008) Full 1080p Latino

Datos de la película

  • Calidad: Full 1080p
  • Audio: Español Latino DTS 5.1 BLURAY - Ingles DTS 5.1 BLURAY
  • Subtitulos: Español Latino PGS - Ingles PGS
  • Resolución: 1920X1080p
  • Formato: MKV
  • Codec: H.264
  • Encoder: Dracarys
  • Mediainfo: Clic para Mostrar Datos Ver
  • Format                                   : Matroska
    Format version                           : Version 4 / Version 2
    File size                                : 8.58 GiB
    Duration                                 : 1 h 50 min
    Overall bit rate                         : 11.2 Mb/s
    Movie name                               : CinemaniaHDD.com
    Encoded date                             : UTC 2018-01-24 02:42:22 / UTC 2018-01-23T12:58:17Z
    Writing application                      : mkvmerge v15.0.0 ('Duel with the Devil') 64-bit
    Writing library                          : libebml v1.3.5 + libmatroska v1.4.5 / Lavf57.7.2

    Video
    ID                                       : 1
    Format                                   : AVC
    Format/Info                              : Advanced Video Codec
    Format profile                           : High@L4.1
    Format settings                          : CABAC / 4 Ref Frames
    Format settings, CABAC                   : Yes
    Format settings, RefFrames               : 4 frames
    Codec ID                                 : V_MPEG4/ISO/AVC
    Duration                                 : 1 h 50 min
    Bit rate                                 : 8 662 kb/s
    Width                                    : 1 920 pixels
    Height                                   : 1 080 pixels
    Display aspect ratio                     : 16:9
    Frame rate mode                          : Constant
    Frame rate                               : 23.976 (24000/1001) FPS
    Color space                              : YUV
    Chroma subsampling                       : 4:2:0
    Bit depth                                : 8 bits
    Scan type                                : Progressive
    Bits/(Pixel*Frame)                       : 0.174
    Stream size                              : 6.66 GiB (78%)
    Title                                    : Wanted (Se busca) (2008) Full 1080p Latino
    Writing library                          : x264 core 148 r2708 86b7198
    Encoding settings                        : cabac=1 / ref=4 / deblock=1:0:0 / analyse=0x3:0x133 / me=esa / subme=10 / psy=1 / psy_rd=1.00:0.00 / mixed_ref=1 / me_range=24 / chroma_me=1 / trellis=2 / 8x8dct=1 / cqm=0 / deadzone=21,11 / fast_pskip=1 / chroma_qp_offset=-2 / threads=34 / lookahead_threads=5 / sliced_threads=0 / nr=0 / decimate=1 / interlaced=0 / bluray_compat=0 / constrained_intra=0 / bframes=8 / b_pyramid=2 / b_adapt=2 / b_bias=0 / direct=3 / weightb=1 / open_gop=0 / weightp=2 / keyint=240 / keyint_min=24 / scenecut=40 / intra_refresh=0 / rc_lookahead=60 / rc=crf / mbtree=1 / crf=20.0 / qcomp=0.60 / qpmin=0 / qpmax=69 / qpstep=4 / vbv_maxrate=62500 / vbv_bufsize=78125 / crf_max=0.0 / nal_hrd=none / filler=0 / ip_ratio=1.40 / aq=1:1.00
    Language                                 : English
    Default                                  : Yes
    Forced                                   : No
    Color range                              : Limited
    Color primaries                          : BT.709
    Transfer characteristics                 : BT.709
    Matrix coefficients                      : BT.709
    Statistics Tags Issue                    : mkvmerge v15.0.0 ('Duel with the Devil') 64-bit 2018-01-24 02:42:22 / mkvmerge v15.0.0 ('Duel with the Devil') 64-bit 2018-01-24 02:42:22 / UTC 2018-01-23T12:58:17Z
    FromStats_BitRate                        : 8867483
    FromStats_Duration                       : 01:50:00.469000000
    FromStats_FrameCount                     : 158253
    FromStats_StreamSize                     : 7316193635

    Audio #1
    ID                                       : 2
    Format                                   : DTS
    Format/Info                              : Digital Theater Systems
    Mode                                     : 16
    Format settings, Endianness              : Big
    Codec ID                                 : A_DTS
    Duration                                 : 1 h 50 min
    Bit rate mode                            : Constant
    Bit rate                                 : 768 kb/s
    Channel(s)                               : 6 channels
    Channel positions                        : Front: L C R, Side: L R, LFE
    Sampling rate                            : 48.0 kHz
    Frame rate                               : 93.750 FPS (512 SPF)
    Bit depth                                : 24 bits
    Compression mode                         : Lossy
    Stream size                              : 604 MiB (7%)
    Language                                 : Spanish
    Default                                  : Yes
    Forced                                   : No
    Statistics Tags Issue                    : mkvmerge v15.0.0 ('Duel with the Devil') 64-bit 2018-01-24 02:42:22 / mkvmerge v15.0.0 ('Duel with the Devil') 64-bit 2018-01-24 02:42:22 / UTC 2018-01-23T12:58:17Z
    FromStats_BitRate                        : 767999
    FromStats_Duration                       : 01:50:00.470000000
    FromStats_FrameCount                     : 618794
    FromStats_StreamSize                     : 633645056

    Audio #2
    ID                                       : 3
    Format                                   : DTS
    Format/Info                              : Digital Theater Systems
    Mode                                     : 16
    Format settings, Endianness              : Big
    Codec ID                                 : A_DTS
    Duration                                 : 1 h 50 min
    Bit rate mode                            : Constant
    Bit rate                                 : 1 509 kb/s
    Channel(s)                               : 6 channels
    Channel positions                        : Front: L C R, Side: L R, LFE
    Sampling rate                            : 48.0 kHz
    Frame rate                               : 93.750 FPS (512 SPF)
    Bit depth                                : 24 bits
    Compression mode                         : Lossy
    Stream size                              : 1.16 GiB (14%)
    Language                                 : English
    Default                                  : No
    Forced                                   : No
    Statistics Tags Issue                    : mkvmerge v15.0.0 ('Duel with the Devil') 64-bit 2018-01-24 02:42:22 / mkvmerge v15.0.0 ('Duel with the Devil') 64-bit 2018-01-24 02:42:22 / UTC 2018-01-23T12:58:17Z
    FromStats_BitRate                        : 1508999
    FromStats_Duration                       : 01:50:00.470000000
    FromStats_FrameCount                     : 618794
    FromStats_StreamSize                     : 1245013528

    Text #1
    ID                                       : 4
    Format                                   : PGS
    Muxing mode                              : zlib
    Codec ID                                 : S_HDMV/PGS
    Codec ID/Info                            : Picture based subtitle format used on BDs/HD-DVDs
    Language                                 : English
    Default                                  : No
    Forced                                   : No
    Statistics Tags Issue                    : mkvmerge v15.0.0 ('Duel with the Devil') 64-bit 2018-01-24 02:42:22 / mkvmerge v15.0.0 ('Duel with the Devil') 64-bit 2018-01-24 02:42:22 / UTC 2018-01-23T12:58:17Z
    FromStats_BitRate                        : 27052
    FromStats_Duration                       : 01:41:14.276000000
    FromStats_FrameCount                     : 1991
    FromStats_StreamSize                     : 20540475

    Text #2
    ID                                       : 5
    Format                                   : PGS
    Muxing mode                              : zlib
    Codec ID                                 : S_HDMV/PGS
    Codec ID/Info                            : Picture based subtitle format used on BDs/HD-DVDs
    Title                                    : Forzados
    Language                                 : Spanish
    Default                                  : Yes
    Forced                                   : Yes
    Statistics Tags Issue                    : mkvmerge v15.0.0 ('Duel with the Devil') 64-bit 2018-01-24 02:42:22 / mkvmerge v15.0.0 ('Duel with the Devil') 64-bit 2018-01-24 02:42:22 / UTC 2018-01-23T12:58:17Z
    FromStats_BitRate                        : 693
    FromStats_Duration                       : 01:38:32.073000000
    FromStats_FrameCount                     : 56
    FromStats_StreamSize                     : 512710

    Text #3
    ID                                       : 6
    Format                                   : PGS
    Muxing mode                              : zlib
    Codec ID                                 : S_HDMV/PGS
    Codec ID/Info                            : Picture based subtitle format used on BDs/HD-DVDs
    Language                                 : Spanish
    Default                                  : No
    Forced                                   : No
    Statistics Tags Issue                    : mkvmerge v15.0.0 ('Duel with the Devil') 64-bit 2018-01-24 02:42:22 / mkvmerge v15.0.0 ('Duel with the Devil') 64-bit 2018-01-24 02:42:22 / UTC 2018-01-23T12:58:17Z
    FromStats_BitRate                        : 19576
    FromStats_Duration                       : 01:41:39.719000000
    FromStats_FrameCount                     : 1659
    FromStats_StreamSize                     : 14926415

  • Peso: 8.58 GiB

Sinopsis

Wesley Gibson (James McAvoy) tiene 25 años y es el zángano más desencantado y aburrido que habita en el planeta. Su jefe se mete con él sin parar, su novia no le hace caso y su vida carece de alicientes. Todos los que le conocen están convencidos de que este vago nato nunca llegará a nada. A Wes sólo le queda esperar que el tiempo pase hasta que muera de forma rutinaria. Pero todo cambia cuando conoce a una mujer llamada Fox (Angelina Jolie). Después del asesinato del padre de Wes, al que veía muy poco, la letal y sexy Fox recluta al joven para la Fraternity (Fraternidad), una sociedad secreta que enseña al joven a desarrollar sus poderes adormecidos para vengar la muerte de su padre.

Ficha técnica

Video trailer de la película

Enlaces de descarga

Rip de Bluray

Descargar Wanted (Se busca) (2008) Full 1080p Latino




Aportes de DPeliculasHDmega la pass es:dpeliculashdmega.org Aportes de CinemaniaHD la pass es:cinemaniahdd.com

Películas relacionadas

  • Si solo pudiera imaginar (2018) Full 1080p Latino

    2018
    Si solo pudiera imaginar (2018) Full 1080p Latino

    5.0 1 h 50 min 2018

    La historia real de la aclamada canción "I Can Only Imagine", la canción cristiana contemporánea más...

    Director: Jon Erwin

    Género: Drama

    Actores: Trace Adkins

  • El Justiciero (2014) Full 1080p Latino

    2014
    El Justiciero (2014) Full 1080p Latino

    4.0 2 h 12 min 2014

    Robert McCall, un antiguo agente de la CIA que lleva ahora una vida tranquila, abandona su retiro para...

    Director: Deirdre Horgan

    Género: Acción

    Actores: Yan Dron

  • James Bond Live and Let Die (1973) Full 1080p Latino

    1973
    James Bond Live and Let Die (1973) Full 1080p Latino

    0.0 2 h 1 min 1973

    En tan sólo veinticuatro horas, tres agentes del servicio secreto británico que investigaban una red...

    Director: Guy Hamilton

    Género: Acción

    Actores: Yaphet Kotto

Comentarios 1
  • bryan chinchilla - 03 febrero, 2018

    el audio falla , en partes queda en silencio