Vikingos (2013) Primera Temporada Full 1080p Latino

1.047 vistas
1 estrella2 estrellas3 estrellas4 estrellas5 estrellas (6 votos, promedio: 5,00 de 5)
Cargando…

Información de Vikingos (2013) Primera Temporada Full 1080p Latino

Datos de la película

  • Calidad: Full 1080p
  • Audio: Español Latino AC3 5.1 BLURAY - Ingles DTS 5.1 BLURAY
  • Subtitulos: Español Latino PGS - Ingles PGS
  • Resolución: 1920x1080p
  • Formato: MKV
  • Codec: H.264
  • Encoder: Dracarys
  • Mediainfo: Clic para Mostrar Datos Ver
  • Format                                   : Matroska
    Format version                           : Version 4 / Version 2
    File size                                : 3.57 GiB
    Duration                                 : 44 min 11 s
    Overall bit rate                         : 11.6 Mb/s
    Encoded date                             : UTC 2018-08-29 03:22:16 / UTC 2018-08-24T01:56:20Z
    Writing application                      : mkvmerge v15.0.0 ('Duel with the Devil') 64-bit
    Writing library                          : libebml v1.3.5 + libmatroska v1.4.5 / Lavf57.7.2

    Video
    ID                                       : 1
    Format                                   : AVC
    Format/Info                              : Advanced Video Codec
    Format profile                           : High@L4.1
    Format settings                          : CABAC / 4 Ref Frames
    Format settings, CABAC                   : Yes
    Format settings, RefFrames               : 4 frames
    Codec ID                                 : V_MPEG4/ISO/AVC
    Duration                                 : 44 min 11 s
    Bit rate                                 : 9 386 kb/s
    Width                                    : 1 920 pixels
    Height                                   : 1 080 pixels
    Display aspect ratio                     : 16:9
    Frame rate mode                          : Constant
    Frame rate                               : 23.976 (24000/1001) FPS
    Color space                              : YUV
    Chroma subsampling                       : 4:2:0
    Bit depth                                : 8 bits
    Scan type                                : Progressive
    Bits/(Pixel*Frame)                       : 0.189
    Stream size                              : 2.90 GiB (81%)
    Title                                    : Vikingos (2013) S01E05 Full 1080p Latino
    Writing library                          : x264 core 148 r2708 86b7198
    Encoding settings                        : cabac=1 / ref=4 / deblock=1:0:0 / analyse=0x3:0x133 / me=esa / subme=10 / psy=1 / psy_rd=1.00:0.00 / mixed_ref=1 / me_range=24 / chroma_me=1 / trellis=2 / 8x8dct=1 / cqm=0 / deadzone=21,11 / fast_pskip=1 / chroma_qp_offset=-2 / threads=34 / lookahead_threads=5 / sliced_threads=0 / nr=0 / decimate=1 / interlaced=0 / bluray_compat=0 / constrained_intra=0 / bframes=8 / b_pyramid=2 / b_adapt=2 / b_bias=0 / direct=3 / weightb=1 / open_gop=0 / weightp=2 / keyint=240 / keyint_min=24 / scenecut=40 / intra_refresh=0 / rc_lookahead=60 / rc=crf / mbtree=1 / crf=20.0 / qcomp=0.60 / qpmin=0 / qpmax=69 / qpstep=4 / vbv_maxrate=62500 / vbv_bufsize=78125 / crf_max=0.0 / nal_hrd=none / filler=0 / ip_ratio=1.40 / aq=1:1.00
    Language                                 : English
    Default                                  : Yes
    Forced                                   : No
    Color range                              : Limited
    Color primaries                          : BT.709
    Transfer characteristics                 : BT.709
    Matrix coefficients                      : BT.709
    Statistics Tags Issue                    : mkvmerge v15.0.0 ('Duel with the Devil') 64-bit 2018-08-29 03:22:16 / mkvmerge v15.0.0 ('Duel with the Devil') 64-bit 2018-08-29 03:22:16 / UTC 2018-08-24T01:56:20Z
    FromStats_BitRate                        : 9599088
    FromStats_Duration                       : 00:44:11.399000000
    FromStats_FrameCount                     : 63570
    FromStats_StreamSize                     : 3181376621

    Audio #1
    ID                                       : 2
    Format                                   : AC-3
    Format/Info                              : Audio Coding 3
    Format settings, Endianness              : Big
    Codec ID                                 : A_AC3
    Duration                                 : 44 min 11 s
    Bit rate mode                            : Constant
    Bit rate                                 : 448 kb/s
    Channel(s)                               : 6 channels
    Channel positions                        : Front: L C R, Side: L R, LFE
    Sampling rate                            : 48.0 kHz
    Frame rate                               : 31.250 FPS (1536 SPF)
    Bit depth                                : 16 bits
    Compression mode                         : Lossy
    Stream size                              : 142 MiB (4%)
    Language                                 : Spanish
    Service kind                             : Complete Main
    Default                                  : Yes
    Forced                                   : No
    Statistics Tags Issue                    : mkvmerge v15.0.0 ('Duel with the Devil') 64-bit 2018-08-29 03:22:16 / mkvmerge v15.0.0 ('Duel with the Devil') 64-bit 2018-08-29 03:22:16 / UTC 2018-08-24T01:56:20Z
    FromStats_BitRate                        : 448000
    FromStats_Duration                       : 00:44:11.456000000
    FromStats_FrameCount                     : 82858
    FromStats_StreamSize                     : 148481536

    Audio #2
    ID                                       : 3
    Format                                   : DTS
    Format/Info                              : Digital Theater Systems
    Mode                                     : 16
    Format settings, Endianness              : Big
    Codec ID                                 : A_DTS
    Duration                                 : 44 min 11 s
    Bit rate mode                            : Constant
    Bit rate                                 : 1 509 kb/s
    Channel(s)                               : 6 channels
    Channel positions                        : Front: L C R, Side: L R, LFE
    Sampling rate                            : 48.0 kHz
    Frame rate                               : 93.750 FPS (512 SPF)
    Bit depth                                : 24 bits
    Compression mode                         : Lossy
    Stream size                              : 477 MiB (13%)
    Language                                 : English
    Default                                  : No
    Forced                                   : No
    Statistics Tags Issue                    : mkvmerge v15.0.0 ('Duel with the Devil') 64-bit 2018-08-29 03:22:16 / mkvmerge v15.0.0 ('Duel with the Devil') 64-bit 2018-08-29 03:22:16 / UTC 2018-08-24T01:56:20Z
    FromStats_BitRate                        : 1508999
    FromStats_Duration                       : 00:44:11.435000000
    FromStats_FrameCount                     : 248572
    FromStats_StreamSize                     : 500126864

    Text #1
    ID                                       : 4
    Format                                   : PGS
    Muxing mode                              : zlib
    Codec ID                                 : S_HDMV/PGS
    Codec ID/Info                            : Picture based subtitle format used on BDs/HD-DVDs
    Language                                 : English
    Default                                  : No
    Forced                                   : No
    Statistics Tags Issue                    : mkvmerge v15.0.0 ('Duel with the Devil') 64-bit 2018-08-29 03:22:16 / mkvmerge v15.0.0 ('Duel with the Devil') 64-bit 2018-08-29 03:22:16 / UTC 2018-08-24T01:56:20Z
    FromStats_BitRate                        : 26369
    FromStats_Duration                       : 00:42:56.824000000
    FromStats_FrameCount                     : 952
    FromStats_StreamSize                     : 8493773

    Text #2
    ID                                       : 5
    Format                                   : PGS
    Muxing mode                              : zlib
    Codec ID                                 : S_HDMV/PGS
    Codec ID/Info                            : Picture based subtitle format used on BDs/HD-DVDs
    Language                                 : Spanish
    Default                                  : No
    Forced                                   : No
    Statistics Tags Issue                    : mkvmerge v15.0.0 ('Duel with the Devil') 64-bit 2018-08-29 03:22:16 / mkvmerge v15.0.0 ('Duel with the Devil') 64-bit 2018-08-29 03:22:16 / UTC 2018-08-24T01:56:20Z
    FromStats_BitRate                        : 20565
    FromStats_Duration                       : 00:43:18.596000000
    FromStats_FrameCount                     : 786
    FromStats_StreamSize                     : 6680054

    Text #3
    ID                                       : 6
    Format                                   : UTF-8
    Codec ID                                 : S_TEXT/UTF8
    Codec ID/Info                            : UTF-8 Plain Text
    Title                                    : Forzados
    Language                                 : Spanish
    Default                                  : Yes
    Forced                                   : Yes
    Statistics Tags Issue                    : mkvmerge v15.0.0 ('Duel with the Devil') 64-bit 2018-08-29 03:22:16 / mkvmerge v15.0.0 ('Duel with the Devil') 64-bit 2018-08-29 03:22:16 / UTC 2018-08-24T01:56:20Z
    FromStats_BitRate                        : 0
    FromStats_Duration                       : 00:43:18.596000000
    FromStats_FrameCount                     : 2
    FromStats_StreamSize                     : 49

    Menu
    00:00:00.000                             : :Chapter 1
    00:04:20.552                             : :Chapter 2
    00:07:23.443                             : :Chapter 3
    00:10:05.688                             : :Chapter 4
    00:12:54.983                             : :Chapter 5
    00:16:10.887                             : :Chapter 6
    00:19:23.371                             : :Chapter 7
    00:20:28.060                             : :Chapter 8
    00:23:29.825                             : :Chapter 9
    00:28:52.773                             : :Chapter 10
    00:31:05.322                             : :Chapter 11
    00:37:43.052                             : :Chapter 12

  • Peso: 3.00 GiB X Capitulos 9 Total

Sinopsis

Sigue las aventuras de Ragnar Lothbrok, el héroe más grande de su época. La serie narra las sagas de la banda de hermanos vikingos de Ragnar y su familia, cuando él se levanta para convertirse en el rey de las tribus vikingas. Además de ser un guerrero valiente, Ragnar encarna las tradiciones nórdicas de la devoción a los dioses, la leyenda dice que él era un descendiente directo de Odín, el dios de la guerra y los guerreros.

Ficha técnica

Video trailer de la película

Enlaces de descarga

Rip de Bluray

Descargar Vikingos (2013) Primera Temporada Full 1080p Latino




Aportes de DPeliculasHDmega la pass es:dpeliculashdmega.org Aportes de CinemaniaHD la pass es:cinemaniahdd.com

Películas relacionadas

Comentarios 1
  • jorge - 06 septiembre, 2018

    gracias , esperando la segunda temporada