Valerian y la ciudad de los mil planetas (2017) 3D OU Full 1080p Latino

2.225 vistas
1 estrella2 estrellas3 estrellas4 estrellas5 estrellas (Ninguna valoración todavía)
Cargando…

Información de Valerian y la ciudad de los mil planetas (2017) 3D OU Full 1080p Latino

Datos de la película

  • Calidad: Full 1080p
  • Audio: Español Latino AC3 5.1 BLURAY - Ingles DTS 5.1 BLURAY
  • Subtitulos: Español Latino PGS - Ingles PGS
  • Resolución: 1920X1080
  • Formato: MKV
  • Codec: H.264
  • Encoder: Dpelis
  • Mediainfo: Clic para Mostrar Datos Ver
  • Format                                   : Matroska
    Format version                           : Version 4 / Version 2
    File size                                : 6.03 GiB
    Duration                                 : 2 h 16 min
    Overall bit rate                         : 6 317 kb/s
    Movie name                               : DPeliculasHDMega.ORG
    Encoded date                             : UTC 2017-11-20 02:51:15 / UTC 2017-11-19T22:16:03Z
    Writing application                      : mkvmerge v17.0.0 ('Be Ur Friend') 64-bit
    Writing library                          : libebml v1.3.5 + libmatroska v1.4.8 / Lavf57.7.2

    Video
    ID                                       : 1
    Format                                   : AVC
    Format/Info                              : Advanced Video Codec
    Format profile                           : High@L4.1
    Format settings                          : CABAC / 4 Ref Frames
    Format settings, CABAC                   : Yes
    Format settings, RefFrames               : 4 frames
    Codec ID                                 : V_MPEG4/ISO/AVC
    Duration                                 : 2 h 16 min
    Bit rate                                 : 4 042 kb/s
    Width                                    : 1 920 pixels
    Height                                   : 1 080 pixels
    Display aspect ratio                     : 16:9
    Frame rate mode                          : Constant
    Frame rate                               : 23.976 (24000/1001) FPS
    Color space                              : YUV
    Chroma subsampling                       : 4:2:0
    Bit depth                                : 8 bits
    Scan type                                : Progressive
    Bits/(Pixel*Frame)                       : 0.081
    Stream size                              : 3.86 GiB (64%)
    Writing library                          : x264 core 148 r2708 86b7198
    Encoding settings                        : cabac=1 / ref=4 / deblock=1:0:0 / analyse=0x3:0x133 / me=esa / subme=10 / psy=1 / psy_rd=1.00:0.00 / mixed_ref=1 / me_range=24 / chroma_me=1 / trellis=2 / 8x8dct=1 / cqm=0 / deadzone=21,11 / fast_pskip=1 / chroma_qp_offset=-2 / threads=34 / lookahead_threads=5 / sliced_threads=0 / nr=0 / decimate=1 / interlaced=0 / bluray_compat=0 / constrained_intra=0 / bframes=8 / b_pyramid=2 / b_adapt=2 / b_bias=0 / direct=3 / weightb=1 / open_gop=0 / weightp=2 / keyint=240 / keyint_min=24 / scenecut=40 / intra_refresh=0 / rc_lookahead=60 / rc=crf / mbtree=1 / crf=20.0 / qcomp=0.60 / qpmin=0 / qpmax=69 / qpstep=4 / vbv_maxrate=62500 / vbv_bufsize=78125 / crf_max=0.0 / nal_hrd=none / filler=0 / ip_ratio=1.40 / aq=1:1.00
    Default                                  : Yes
    Forced                                   : No
    Color range                              : Limited
    Color primaries                          : BT.709
    Transfer characteristics                 : BT.709
    Matrix coefficients                      : BT.709
    Statistics Tags Issue                    : mkvmerge v17.0.0 ('Be Ur Friend') 64-bit 2017-11-20 02:51:15 / mkvmerge v17.0.0 ('Be Ur Friend') 64-bit 2017-11-20 02:51:15 / UTC 2017-11-19T22:16:03Z
    FromStats_BitRate                        : 4149567
    FromStats_Duration                       : 02:16:39.525000000
    FromStats_FrameCount                     : 196592
    FromStats_StreamSize                     : 4253060211

    Audio #1
    ID                                       : 2
    Format                                   : AC-3
    Format/Info                              : Audio Coding 3
    Format settings, Endianness              : Big
    Codec ID                                 : A_AC3
    Duration                                 : 2 h 16 min
    Bit rate mode                            : Constant
    Bit rate                                 : 640 kb/s
    Channel(s)                               : 6 channels
    Channel positions                        : Front: L C R, Side: L R, LFE
    Sampling rate                            : 48.0 kHz
    Frame rate                               : 31.250 FPS (1536 SPF)
    Bit depth                                : 16 bits
    Compression mode                         : Lossy
    Delay relative to video                  : 4 ms
    Stream size                              : 626 MiB (10%)
    Language                                 : Spanish
    Service kind                             : Complete Main
    Default                                  : Yes
    Forced                                   : No
    Statistics Tags Issue                    : mkvmerge v17.0.0 ('Be Ur Friend') 64-bit 2017-11-20 02:51:15 / mkvmerge v17.0.0 ('Be Ur Friend') 64-bit 2017-11-20 02:51:15 / UTC 2017-11-19T22:16:03Z
    FromStats_BitRate                        : 640000
    FromStats_Duration                       : 02:16:41.952000000
    FromStats_FrameCount                     : 256311
    FromStats_StreamSize                     : 656156160

    Audio #2
    ID                                       : 3
    Format                                   : DTS
    Format/Info                              : Digital Theater Systems
    Mode                                     : 16
    Format settings, Endianness              : Big
    Codec ID                                 : A_DTS
    Duration                                 : 2 h 16 min
    Bit rate mode                            : Constant
    Bit rate                                 : 1 509 kb/s
    Channel(s)                               : 6 channels
    Channel positions                        : Front: L C R, Side: L R, LFE
    Sampling rate                            : 48.0 kHz
    Frame rate                               : 93.750 FPS (512 SPF)
    Bit depth                                : 24 bits
    Compression mode                         : Lossy
    Stream size                              : 1.44 GiB (24%)
    Title                                    : Surround
    Language                                 : English
    Default                                  : No
    Forced                                   : No
    Statistics Tags Issue                    : mkvmerge v17.0.0 ('Be Ur Friend') 64-bit 2017-11-20 02:51:15 / mkvmerge v17.0.0 ('Be Ur Friend') 64-bit 2017-11-20 02:51:15 / UTC 2017-11-19T22:16:03Z
    FromStats_BitRate                        : 1508999
    FromStats_Duration                       : 02:16:39.894000000
    FromStats_FrameCount                     : 768740
    FromStats_StreamSize                     : 1546704880

    Text #1
    ID                                       : 4
    Format                                   : PGS
    Muxing mode                              : zlib
    Codec ID                                 : S_HDMV/PGS
    Codec ID/Info                            : Picture based subtitle format used on BDs/HD-DVDs
    Language                                 : Spanish
    Default                                  : No
    Forced                                   : No
    Statistics Tags Issue                    : mkvmerge v17.0.0 ('Be Ur Friend') 64-bit 2017-11-20 02:51:15 / mkvmerge v17.0.0 ('Be Ur Friend') 64-bit 2017-11-20 02:51:15 / UTC 2017-11-19T22:16:03Z
    FromStats_BitRate                        : 36242
    FromStats_Duration                       : 02:08:32.308000000
    FromStats_FrameCount                     : 3052
    FromStats_StreamSize                     : 34938981

    Text #2
    ID                                       : 5
    Format                                   : UTF-8
    Codec ID                                 : S_TEXT/UTF8
    Codec ID/Info                            : UTF-8 Plain Text
    Title                                    : FORZADOS
    Language                                 : Spanish
    Default                                  : Yes
    Forced                                   : No
    Statistics Tags Issue                    : mkvmerge v17.0.0 ('Be Ur Friend') 64-bit 2017-11-20 02:51:15 / mkvmerge v17.0.0 ('Be Ur Friend') 64-bit 2017-11-20 02:51:15 / UTC 2017-11-19T22:16:03Z
    FromStats_BitRate                        : 0
    FromStats_Duration                       : 02:08:15.684000000
    FromStats_FrameCount                     : 12
    FromStats_StreamSize                     : 368

    Text #3
    ID                                       : 6
    Format                                   : UTF-8
    Codec ID                                 : S_TEXT/UTF8
    Codec ID/Info                            : UTF-8 Plain Text
    Language                                 : Spanish
    Default                                  : No
    Forced                                   : No
    Statistics Tags Issue                    : mkvmerge v17.0.0 ('Be Ur Friend') 64-bit 2017-11-20 02:51:15 / mkvmerge v17.0.0 ('Be Ur Friend') 64-bit 2017-11-20 02:51:15 / UTC 2017-11-19T22:16:03Z
    FromStats_BitRate                        : 57
    FromStats_Duration                       : 02:10:14.532000000
    FromStats_FrameCount                     : 1574
    FromStats_StreamSize                     : 55786

    Menu
    00:00:00.000                             : :(01)00:00:00:000
    00:17:30.925                             : :(02)00:17:30:924
    00:34:12.342                             : :(03)00:34:12:341
    00:51:16.782                             : :(04)00:51:16:698
    01:07:59.742                             : :(05)01:07:59:742
    01:26:10.374                             : :(06)01:26:10:331
    01:40:22.725                             : :(07)01:40:22:725
    01:58:47.912                             : :(08)01:58:47:870

     

  • Peso: 6.03 GiB

Sinopsis

Valerian (Dane DeHaan) y Laureline (Cara Delevingne) son agentes especiales del gobierno de los territorios humanos, encargados de mantener el orden en todo el universo. Valerian busca algo más que una relación profesional con su compañera, por lo que la persigue abiertamente con constantes proposiciones románticas. Sin embargo, el amplio historial de Valerian con las mujeres, junto con los valores tradicionales de Laureline, la llevan a rechazar todos sus intentos.
Bajo las órdenes de su comandante (Clive Owen), Valerian y Laureline emprenden una misión en la impresionante ciudad intergaláctica de Alpha, una metrópolis en constante crecimiento compuesta por miles de especies distintas, procedentes de todos los rincones del universo. Los diecisiete millones de habitantes de Alpha han convergido con el tiempo, uniendo sus talentos, tecnología y recursos por el bien común. Por desgracia, no todo el mundo comparte esos mismos objetivos en Alpha; de hecho, hay en marcha unas fuerzas ocultas que ponen en grave peligro a nuestra raza.

Ficha técnica

Video trailer de la película

Enlaces de descarga

Rip de Bluray

Descargar Valerian y la ciudad de los mil planetas (2017) 3D OU Full 1080p Latino




Aportes de DPeliculasHDmega la pass es:dpeliculashdmega.org Aportes de CinemaniaHD la pass es:cinemaniahdd.com

Películas relacionadas

  • Occupation (2018) WEBDL 1080p Subtitulada

    2018
    Occupation (2018) WEBDL 1080p Subtitulada

    0.0 1h 59m 2018

    El film se centra en un grupo de civiles que ven como su pequeño pueblo en Australia es aniquilado por...

    Director: Luke Sparke

    Género: Acción

    Actores: Temuera Morrison

  • Si solo pudiera imaginar (2018) Full 1080p Latino

    2018
    Si solo pudiera imaginar (2018) Full 1080p Latino

    4.8 1 h 50 min 2018

    La historia real de la aclamada canción "I Can Only Imagine", la canción cristiana contemporánea más...

    Director: Jon Erwin

    Género: Drama

    Actores: Trace Adkins

  • El Justiciero (2014) Full 1080p Latino

    2014
    El Justiciero (2014) Full 1080p Latino

    4.3 2 h 12 min 2014

    Robert McCall, un antiguo agente de la CIA que lleva ahora una vida tranquila, abandona su retiro para...

    Director: Deirdre Horgan

    Género: Acción

    Actores: Yan Dron

Comentarios 5
  • k4roso - 30 enero, 2018

    como puedo volcar este formato a bluray y que no quede la pantalla dividida y que quede 3D?

  • rodolfo - 17 enero, 2018

    espero tener éxito de poder bajar películas

  • Daltry Gárate - 26 noviembre, 2017

    Los enlaces de Mega no aparecen y Google Drive ya borró los suyos

    • dpelis - 26 noviembre, 2017

      bajar de mega leer el tutorial los de google se peude descargar sin problemas

    • Dpelis2 - 26 noviembre, 2017

      Links de mega Agregados