Una mujer fantástica (2017) Full 1080p Latino

703 vistas
1 estrella2 estrellas3 estrellas4 estrellas5 estrellas (3 votos, promedio: 2,33 de 5)
Cargando…

Información de Una mujer fantástica (2017) Full 1080p Latino

Datos de la película

  • Calidad: Full 1080p
  • Audio: Español DTS 5.1 BLURAY
  • Subtitulos: No
  • Resolución: 1920x1080p
  • Formato: MKV
  • Codec: H.264
  • Encoder: Dracarys
  • Mediainfo: Clic para Mostrar Datos Ver
  • Format                                   : Matroska
    Format version                           : Version 4 / Version 2
    File size                                : 5.21 GiB
    Duration                                 : 1 h 44 min
    Overall bit rate                         : 7 166 kb/s
    Movie name                               : CinemaniaHDD.net
    Encoded date                             : UTC 2018-05-23 20:01:43 / UTC 2018-05-23T00:28:53Z
    Writing application                      : mkvmerge v15.0.0 ('Duel with the Devil') 64-bit
    Writing library                          : libebml v1.3.5 + libmatroska v1.4.5 / Lavf57.7.2

    Video
    ID                                       : 1
    Format                                   : AVC
    Format/Info                              : Advanced Video Codec
    Format profile                           : High@L4.1
    Format settings                          : CABAC / 4 Ref Frames
    Format settings, CABAC                   : Yes
    Format settings, RefFrames               : 4 frames
    Codec ID                                 : V_MPEG4/ISO/AVC
    Duration                                 : 1 h 44 min
    Bit rate                                 : 5 515 kb/s
    Width                                    : 1 920 pixels
    Height                                   : 1 080 pixels
    Display aspect ratio                     : 16:9
    Frame rate mode                          : Constant
    Frame rate                               : 23.976 (24000/1001) FPS
    Color space                              : YUV
    Chroma subsampling                       : 4:2:0
    Bit depth                                : 8 bits
    Scan type                                : Progressive
    Bits/(Pixel*Frame)                       : 0.111
    Stream size                              : 4.01 GiB (77%)
    Title                                    : Una mujer fantástica (2017) Full 1080p Latino
    Writing library                          : x264 core 148 r2708 86b7198
    Encoding settings                        : cabac=1 / ref=4 / deblock=1:0:0 / analyse=0x3:0x133 / me=esa / subme=9 / psy=1 / psy_rd=1.00:0.00 / mixed_ref=1 / me_range=16 / chroma_me=1 / trellis=2 / 8x8dct=1 / cqm=0 / deadzone=21,11 / fast_pskip=1 / chroma_qp_offset=-2 / threads=34 / lookahead_threads=2 / sliced_threads=0 / nr=0 / decimate=1 / interlaced=0 / bluray_compat=0 / constrained_intra=0 / bframes=3 / b_pyramid=2 / b_adapt=2 / b_bias=0 / direct=3 / weightb=1 / open_gop=0 / weightp=2 / keyint=240 / keyint_min=24 / scenecut=40 / intra_refresh=0 / rc_lookahead=60 / rc=crf / mbtree=1 / crf=20.0 / qcomp=0.60 / qpmin=0 / qpmax=69 / qpstep=4 / vbv_maxrate=62500 / vbv_bufsize=78125 / crf_max=0.0 / nal_hrd=none / filler=0 / ip_ratio=1.40 / aq=1:1.00
    Language                                 : Spanish
    Default                                  : Yes
    Forced                                   : No
    Color range                              : Limited
    Color primaries                          : BT.709
    Transfer characteristics                 : BT.709
    Matrix coefficients                      : BT.709
    Statistics Tags Issue                    : mkvmerge v15.0.0 ('Duel with the Devil') 64-bit 2018-05-23 20:01:43 / mkvmerge v15.0.0 ('Duel with the Devil') 64-bit 2018-05-23 20:01:43 / UTC 2018-05-23T00:28:53Z
    FromStats_BitRate                        : 5654947
    FromStats_Duration                       : 01:44:00.234000000
    FromStats_FrameCount                     : 149616
    FromStats_StreamSize                     : 4411024527

    Audio
    ID                                       : 2
    Format                                   : DTS
    Format/Info                              : Digital Theater Systems
    Mode                                     : 16
    Format settings, Endianness              : Big
    Codec ID                                 : A_DTS
    Duration                                 : 1 h 44 min
    Bit rate mode                            : Constant
    Bit rate                                 : 1 509 kb/s
    Channel(s)                               : 6 channels
    Channel positions                        : Front: L C R, Side: L R, LFE
    Sampling rate                            : 48.0 kHz
    Frame rate                               : 93.750 FPS (512 SPF)
    Bit depth                                : 24 bits
    Compression mode                         : Lossy
    Stream size                              : 1.10 GiB (21%)
    Language                                 : Spanish
    Default                                  : Yes
    Forced                                   : No
    Statistics Tags Issue                    : mkvmerge v15.0.0 ('Duel with the Devil') 64-bit 2018-05-23 20:01:43 / mkvmerge v15.0.0 ('Duel with the Devil') 64-bit 2018-05-23 20:01:43 / UTC 2018-05-23T00:28:53Z
    FromStats_BitRate                        : 1509000
    FromStats_Duration                       : 01:44:00.224000000
    FromStats_FrameCount                     : 585021
    FromStats_StreamSize                     : 1177062252

    Menu
    00:00:00.000                             : :Chapter 1
    00:06:52.746                             : :Chapter 2
    00:11:56.674                             : :Chapter 3
    00:19:38.928                             : :Chapter 4
    00:25:01.917                             : :Chapter 5
    00:32:17.436                             : :Chapter 6
    00:36:40.365                             : :Chapter 7
    00:44:39.552                             : :Chapter 8
    00:57:04.546                             : :Chapter 9
    01:01:29.436                             : :Chapter 10
    01:10:48.077                             : :Chapter 11
    01:16:02.808                             : :Chapter 12
    01:21:02.775                             : :Chapter 13
    01:25:54.524                             : :Chapter 14
    01:33:42.492                             : :Chapter 15
    01:35:33.895                             : :Chapter 16

  • Peso: 5.21 GiB

Sinopsis

Marina (Daniela Vega) una joven camarera aspirante a cantante y Orlando (Francisco Reyes), veinte años mayor, planean un futuro juntos. Tras una noche de fiesta, Marina lo lleva a urgencias, pero él muere al llegar al hospital. Ella debe entonces enfrentar las sospechas por su muerte. Su condición de mujer transexual supone para la familia de Orlando una completa aberración. Ella tendrá que luchar para convertirse en lo que es: una mujer fuerte, pasional… fantástica.

Ficha técnica

  • Titulo original: Una mujer fantástica
  • Fecha de lanzamiento: 06-04-2017 (Chile, France, Germany, Spain)
  • Director: Sebastián Lelio
  • Género: Drama, FULL 1080p Plateadas
  • Puntuación: 2.3 3 votos
  • Duración:
    1 h 44 min

Video trailer de la película

Enlaces de descarga

Rip de Bluray

Descargar Una mujer fantástica (2017) Full 1080p Latino




Aportes de DPeliculasHDmega la pass es:dpeliculashdmega.org Aportes de CinemaniaHD la pass es:cinemaniahdd.com
Guardado en : Drama , FULL 1080p Plateadas

Películas relacionadas

Comentarios 0