Una lucha incierta (2016) 1080p Latino | CinemaniaHD - Descargar Peliculas 1080p Mega Google Drive

Una lucha incierta (2016) 1080p Latino

1.099 vistas
1 estrella2 estrellas3 estrellas4 estrellas5 estrellas (Ninguna valoración todavía)
Cargando…

Información de Una lucha incierta (2016) 1080p Latino

Datos de la película

  • Calidad: 1080p
  • Audio: Español Latino AC3 5.1 DVD - Ingles AC3 5.1 BLURAY
  • Subtitulos: Español Latino SRT
  • Resolución: 1920x800p
  • Formato: MKV
  • Codec: H.264
  • Encoder: Dpelis
  • Mediainfo: Clic para Mostrar Datos Ver
  • In Dubios Battle (20016) 1080p Latino.mkv
    Format                      : Matroska
    Format version              : Version 4 / Version 2
    File size                   : 3.37 GiB
    Duration                    : 1 h 53 min
    Overall bit rate            : 4 268 kb/s
    Movie name                  : DPeliculasHDMega.ORG
    Encoded date                : UTC 2017-09-25 19:03:42 / UTC 2017-09-25T17:48:26Z
    Writing application         : mkvmerge v10.0.0 ('To Drown In You') 64bit
    Writing library             : libebml v1.3.4 + libmatroska v1.4.5 / Lavf57.7.2

    Video
    ID                          : 1
    Format                      : AVC
    Format/Info                 : Advanced Video Codec
    Format profile              : High@L4.1
    Format settings, CABAC      : Yes
    Format settings, RefFrames  : 4 frames
    Codec ID                    : V_MPEG4/ISO/AVC
    Duration                    : 1 h 53 min
    Bit rate                    : 3 500 kb/s
    Width                       : 1 920 pixels
    Height                      : 800 pixels
    Display aspect ratio        : 2.40:1
    Frame rate mode             : Constant
    Frame rate                  : 23.976 (24000/1001) FPS
    Color space                 : YUV
    Chroma subsampling          : 4:2:0
    Bit depth                   : 8 bits
    Scan type                   : Progressive
    Bits/(Pixel*Frame)          : 0.095
    Stream size                 : 2.70 GiB (80%)
    Writing library             : x264 core 148 r2708 86b7198
    Encoding settings           : cabac=1 / ref=3 / deblock=1:0:0 / analyse=0x3:0x113 / me=hex / subme=7 / psy=1 / psy_rd=1.00:0.00 / mixed_ref=1 / me_range=16 / chroma_me=1 / trellis=1 / 8x8dct=1 / cqm=0 / deadzone=21,11 / fast_pskip=1 / chroma_qp_offset=-2 / threads=25 / lookahead_threads=4 / sliced_threads=0 / nr=0 / decimate=1 / interlaced=0 / bluray_compat=0 / constrained_intra=0 / bframes=3 / b_pyramid=2 / b_adapt=1 / b_bias=0 / direct=1 / weightb=1 / open_gop=0 / weightp=2 / keyint=240 / keyint_min=24 / scenecut=40 / intra_refresh=0 / rc_lookahead=40 / rc=2pass / mbtree=1 / bitrate=3500 / ratetol=1.0 / qcomp=0.60 / qpmin=0 / qpmax=69 / qpstep=4 / cplxblur=20.0 / qblur=0.5 / vbv_maxrate=62500 / vbv_bufsize=78125 / nal_hrd=none / filler=0 / ip_ratio=1.40 / aq=1:1.00
    Default                     : Yes
    Forced                      : No
    Color range                 : Limited
    Color primaries             : BT.709
    Transfer characteristics    : BT.709
    Matrix coefficients         : BT.709
    Statistics Tags Issue       : mkvmerge v10.0.0 ('To Drown In You') 64bit 2017-09-25 19:03:42 / mkvmerge v10.0.0 ('To Drown In You') 64bit 2017-09-25 19:03:42 / UTC 2017-09-25T17:48:26Z
    FromStats_BitRate           : 3498478
    FromStats_Duration          : 01:53:04.862000000
    FromStats_FrameCount        : 162674
    FromStats_StreamSize        : 2967086396

    Audio #1
    ID                          : 2
    Format                      : AC-3
    Format/Info                 : Audio Coding 3
    Format settings, Endianness : Big
    Codec ID                    : A_AC3
    Duration                    : 1 h 53 min
    Bit rate mode               : Constant
    Bit rate                    : 384 kb/s
    Channel(s)                  : 6 channels
    Channel positions           : Front: L C R, Side: L R, LFE
    Sampling rate               : 48.0 kHz
    Frame rate                  : 31.250 FPS (1536 SPF)
    Bit depth                   : 16 bits
    Compression mode            : Lossy
    Delay relative to video     : -5 ms
    Stream size                 : 311 MiB (9%)
    Language                    : Spanish
    Service kind                : Complete Main
    Default                     : Yes
    Forced                      : No
    Statistics Tags Issue       : mkvmerge v10.0.0 ('To Drown In You') 64bit 2017-09-25 19:03:42 / mkvmerge v10.0.0 ('To Drown In You') 64bit 2017-09-25 19:03:42 / UTC 2017-09-25T17:48:26Z
    FromStats_BitRate           : 384000
    FromStats_Duration          : 01:53:05.376000000
    FromStats_FrameCount        : 212043
    FromStats_StreamSize        : 325698048

    Audio #2
    ID                          : 3
    Format                      : AC-3
    Format/Info                 : Audio Coding 3
    Format settings, Endianness : Big
    Codec ID                    : A_AC3
    Duration                    : 1 h 53 min
    Bit rate mode               : Constant
    Bit rate                    : 384 kb/s
    Channel(s)                  : 6 channels
    Channel positions           : Front: L C R, Side: L R, LFE
    Sampling rate               : 48.0 kHz
    Frame rate                  : 31.250 FPS (1536 SPF)
    Bit depth                   : 16 bits
    Compression mode            : Lossy
    Delay relative to video     : -5 ms
    Stream size                 : 311 MiB (9%)
    Title                       : Surround
    Language                    : English
    Service kind                : Complete Main
    Default                     : No
    Forced                      : No
    Statistics Tags Issue       : mkvmerge v10.0.0 ('To Drown In You') 64bit 2017-09-25 19:03:42 / mkvmerge v10.0.0 ('To Drown In You') 64bit 2017-09-25 19:03:42 / UTC 2017-09-25T17:48:26Z
    FromStats_BitRate           : 384000
    FromStats_Duration          : 01:53:04.832000000
    FromStats_FrameCount        : 212026
    FromStats_StreamSize        : 325671936

    Text
    ID                          : 4
    Format                      : UTF-8
    Codec ID                    : S_TEXT/UTF8
    Codec ID/Info               : UTF-8 Plain Text
    Language                    : Spanish
    Default                     : No
    Forced                      : No
    Statistics Tags Issue       : mkvmerge v10.0.0 ('To Drown In You') 64bit 2017-09-25 19:03:42 / mkvmerge v10.0.0 ('To Drown In You') 64bit 2017-09-25 19:03:42 / UTC 2017-09-25T17:48:26Z
    FromStats_BitRate           : 57
    FromStats_Duration          : 01:45:51.386000000
    FromStats_FrameCount        : 1320
    FromStats_StreamSize        : 45905

    Menu
    00:00:00.000                : :00:00:00.000
    00:08:16.705                : :00:08:16.663
    00:14:26.199                : :00:14:26.115
    00:20:54.462                : :00:20:54.295
    00:29:04.993                : :00:29:04.993
    00:37:09.894                : :00:37:09.811
    00:46:36.168                : :00:46:36.043
    00:53:51.937                : :00:53:51.854
    01:02:53.603                : :01:02:53.520
    01:06:58.515                : :01:06:58.348
    01:12:51.075                : :01:12:50.908
    01:21:41.772                : :01:21:41.730
    01:26:11.708                : :01:26:11.583
    01:31:28.900                : :01:31:28.858
    01:39:06.482                : :01:39:06.357
    01:46:44.940                : :01:46:44.940

  • Peso: 3.37 GB

Sinopsis

En el país de la manzana, California, novecientos trabajadores inmigrantes se alzan contra los terratenientes tras pagarles sólo una parte del sueldo prometido. El grupo adquieres una vida propia, más fuerte que los miembros como individuos y mucho más peligrosa. Liderados por el condenado Jim Nola, la huelga se funda en su trágico idealismo.

Ficha técnica

  • Titulo original: In Dubious Battle
  • Fecha de lanzamiento: 17-02-2017 (United States of America)
  • Director: James Franco, Janet Beeson, Robin Meyers
  • Género: Drama
  • Puntuación: 0.0 0 votos
  • Duración:
    1h 50m

Video trailer de la película

Enlaces de descarga

Rip de Bluray

Descargar Una lucha incierta (2016) 1080p Latino




Aportes de DPeliculasHDmega la pass es:dpeliculashdmega.org Aportes de CinemaniaHD la pass es:cinemaniahdd.com
Guardado en : Drama

Películas relacionadas

  • La jungla (2017) 1080p Latino

    2017
    La jungla (2017) 1080p Latino

    0.0 1h 55m 2017

    Cuenta la historia real de Yossi Ghinsberg, un joven aventurero que vivió para escribir un bestseller...

    Director: Greg McLean

    Género: 1080p Portada Negra

    Actores: Yasmin Kassim

  • Let There Be Light (2017) 1080p Latino

    2017
    Let There Be Light (2017) 1080p Latino

    0.0 1h 40m 2017

    Un ateo vive una experiencia cercana a la muerte tras un accidente de coche y se convierte al cristianismo.

    Director: Kevin Sorbo

    Género: 1080p Portada Negra

    Actores: Sean Hannity

  • María Magdalena (2018) Full 1080p Latino

    2018
    María Magdalena (2018) Full 1080p Latino

    4.5 2h 0m 2018

    Relato de la historia bíblica desde el punto de vista biográfico de María Magdalena (Rooney Mara),...

    Director: Phil Jones

    Género: Drama

    Actores: Zohar Strauss

Comentarios 0