Una cita en el parque (2017) 1080p Latino

632 vistas
1 estrella2 estrellas3 estrellas4 estrellas5 estrellas (Ninguna valoración todavía)
Cargando…

Información de Una cita en el parque (2017) 1080p Latino

Datos de la película

  • Calidad: 1080p
  • Audio: Español Latino AC3 2.0 iTUNES - Ingles AC3 5.1 BLURAY
  • Subtitulos: Español Latino SRT
  • Resolución: 1920X804p
  • Formato: MKV
  • Codec: H.264
  • Encoder: Dracarys
  • Mediainfo: Clic para Mostrar Datos Ver
  • Format                                   : Matroska
    Format version                           : Version 4 / Version 2
    File size                                : 3.09 GiB
    Duration                                 : 1 h 42 min
    Overall bit rate                         : 4 311 kb/s
    Movie name                               : CinemaniaHDD.com
    Encoded date                             : UTC 2018-01-18 09:05:23 / UTC 2018-01-18T08:02:47Z
    Writing application                      : mkvmerge v15.0.0 ('Duel with the Devil') 64-bit
    Writing library                          : libebml v1.3.5 + libmatroska v1.4.5 / Lavf57.7.2

    Video
    ID                                       : 1
    Format                                   : AVC
    Format/Info                              : Advanced Video Codec
    Format profile                           : High@L4.1
    Format settings                          : CABAC / 4 Ref Frames
    Format settings, CABAC                   : Yes
    Format settings, RefFrames               : 4 frames
    Codec ID                                 : V_MPEG4/ISO/AVC
    Duration                                 : 1 h 42 min
    Bit rate                                 : 3 500 kb/s
    Width                                    : 1 920 pixels
    Height                                   : 804 pixels
    Display aspect ratio                     : 2.40:1
    Frame rate mode                          : Constant
    Frame rate                               : 24.000 FPS
    Color space                              : YUV
    Chroma subsampling                       : 4:2:0
    Bit depth                                : 8 bits
    Scan type                                : Progressive
    Bits/(Pixel*Frame)                       : 0.094
    Stream size                              : 2.43 GiB (79%)
    Title                                    : Una cita en el parque (2017) 1080p Latino
    Writing library                          : x264 core 148 r2708 86b7198
    Encoding settings                        : cabac=1 / ref=3 / deblock=1:0:0 / analyse=0x3:0x113 / me=hex / subme=7 / psy=1 / psy_rd=1.00:0.00 / mixed_ref=1 / me_range=16 / chroma_me=1 / trellis=1 / 8x8dct=1 / cqm=0 / deadzone=21,11 / fast_pskip=1 / chroma_qp_offset=-2 / threads=25 / lookahead_threads=4 / sliced_threads=0 / nr=0 / decimate=1 / interlaced=0 / bluray_compat=0 / constrained_intra=0 / bframes=3 / b_pyramid=2 / b_adapt=1 / b_bias=0 / direct=1 / weightb=1 / open_gop=0 / weightp=2 / keyint=240 / keyint_min=24 / scenecut=40 / intra_refresh=0 / rc_lookahead=40 / rc=abr / mbtree=1 / bitrate=3500 / ratetol=1.0 / qcomp=0.60 / qpmin=0 / qpmax=69 / qpstep=4 / vbv_maxrate=62500 / vbv_bufsize=78125 / nal_hrd=none / filler=0 / ip_ratio=1.40 / aq=1:1.00
    Language                                 : English
    Default                                  : Yes
    Forced                                   : No
    Color range                              : Limited
    Color primaries                          : BT.709
    Transfer characteristics                 : BT.709
    Matrix coefficients                      : BT.709
    Statistics Tags Issue                    : mkvmerge v15.0.0 ('Duel with the Devil') 64-bit 2018-01-18 09:05:23 / mkvmerge v15.0.0 ('Duel with the Devil') 64-bit 2018-01-18 09:05:23 / UTC 2018-01-18T08:02:47Z
    FromStats_BitRate                        : 3476937
    FromStats_Duration                       : 01:42:37.167000000
    FromStats_FrameCount                     : 147772
    FromStats_StreamSize                     : 2676010348

    Audio #1
    ID                                       : 2
    Format                                   : AC-3
    Format/Info                              : Audio Coding 3
    Format settings, Endianness              : Big
    Codec ID                                 : A_AC3
    Duration                                 : 1 h 42 min
    Bit rate mode                            : Constant
    Bit rate                                 : 192 kb/s
    Channel(s)                               : 2 channels
    Channel positions                        : Front: L R
    Sampling rate                            : 48.0 kHz
    Frame rate                               : 31.250 FPS (1536 SPF)
    Bit depth                                : 16 bits
    Compression mode                         : Lossy
    Delay relative to video                  : 19 ms
    Stream size                              : 141 MiB (4%)
    Language                                 : Spanish
    Service kind                             : Complete Main
    Default                                  : Yes
    Forced                                   : No
    Statistics Tags Issue                    : mkvmerge v15.0.0 ('Duel with the Devil') 64-bit 2018-01-18 09:05:23 / mkvmerge v15.0.0 ('Duel with the Devil') 64-bit 2018-01-18 09:05:23 / UTC 2018-01-18T08:02:47Z
    FromStats_BitRate                        : 192000
    FromStats_Duration                       : 01:42:37.120000000
    FromStats_FrameCount                     : 192410
    FromStats_StreamSize                     : 147770880

    Audio #2
    ID                                       : 3
    Format                                   : AC-3
    Format/Info                              : Audio Coding 3
    Format settings, Endianness              : Big
    Codec ID                                 : A_AC3
    Duration                                 : 1 h 42 min
    Bit rate mode                            : Constant
    Bit rate                                 : 640 kb/s
    Channel(s)                               : 6 channels
    Channel positions                        : Front: L C R, Side: L R, LFE
    Sampling rate                            : 48.0 kHz
    Frame rate                               : 31.250 FPS (1536 SPF)
    Bit depth                                : 16 bits
    Compression mode                         : Lossy
    Delay relative to video                  : -5 ms
    Stream size                              : 470 MiB (15%)
    Language                                 : English
    Service kind                             : Complete Main
    Default                                  : No
    Forced                                   : No
    Statistics Tags Issue                    : mkvmerge v15.0.0 ('Duel with the Devil') 64-bit 2018-01-18 09:05:23 / mkvmerge v15.0.0 ('Duel with the Devil') 64-bit 2018-01-18 09:05:23 / UTC 2018-01-18T08:02:47Z
    FromStats_BitRate                        : 640000
    FromStats_Duration                       : 01:42:36.128000000
    FromStats_FrameCount                     : 192379
    FromStats_StreamSize                     : 492490240

    Text
    ID                                       : 4
    Format                                   : UTF-8
    Codec ID                                 : S_TEXT/UTF8
    Codec ID/Info                            : UTF-8 Plain Text
    Language                                 : Spanish
    Default                                  : No
    Forced                                   : No
    Statistics Tags Issue                    : mkvmerge v15.0.0 ('Duel with the Devil') 64-bit 2018-01-18 09:05:23 / mkvmerge v15.0.0 ('Duel with the Devil') 64-bit 2018-01-18 09:05:23 / UTC 2018-01-18T08:02:47Z
    FromStats_BitRate                        : 61
    FromStats_Duration                       : 01:37:24.833000000
    FromStats_FrameCount                     : 1433
    FromStats_StreamSize                     : 44599

    Menu
    00:00:00.000                             : :00:00:00.000
    00:11:07.417                             : :00:11:07.417
    00:22:46.000                             : :00:22:46.000
    00:37:14.042                             : :00:37:14.042
    00:49:47.250                             : :00:49:47.250
    01:00:58.542                             : :01:00:58.542
    01:12:52.708                             : :01:12:52.708
    01:26:15.125                             : :01:26:15.125

     

  • Peso: 3.09 GiB

Sinopsis

Emily Walters es una viuda que vive a las afueras de Hampstead Heath en Londres, incapaz de centrarse en cosas que requieren su atención, como su apartamento, sus finanzas o su hijo. Un día observa como un hombre que habita una destartalada cabaña es atacado por una banda profesional de matones, por lo que llama a la policía mientras sigue mirando. Después se adentra en el bosque para buscar al hombre, y así descubre que –aunque ha vivido en paz durante 17 años- ahora su existencia se ve amenazada por unos promotores inmobiliarios.

Ficha técnica

  • Titulo original: Hampstead
  • Fecha de lanzamiento: 23-06-2017 (United Kingdom)
  • Director: Joel Hopkins
  • Género: Comedia, Romance
  • Puntuación: 0.0 0 votos
  • Duración:
    1 h 42 min

Video trailer de la película

Enlaces de descarga

Rip de Bluray

Descargar Una cita en el parque (2017) 1080p Latino




Aportes de DPeliculasHDmega la pass es:dpeliculashdmega.org Aportes de CinemaniaHD la pass es:cinemaniahdd.com
Guardado en : Comedia , Romance

Películas relacionadas

  • El alma de la fiesta (2018) 1080p Latino

    2018
    El alma de la fiesta (2018) 1080p Latino

    0.0 1 h 44 min 2018

    Después de haber sido abandonada por su esposo, Deanna, ama de casa, decide darle un giro a su vida...

    Director: Ben Falcone

    Género: Comedia

    Actores: Yani Simone

  • Tully (2018) 1080p Latino

    2018
    Tully (2018) 1080p Latino

    0.0 1 h 35 min 2018

    La historia de una mujer con tres hijos que, incapaz de lidiar con su bebé recién nacido, contrata...

    Director: Jason Reitman

    Género: Comedia

    Actores: Stormy Ent

  • El padre del año (2018) WEB-DL 1080p Latino

    2018
    El padre del año (2018) WEB-DL 1080p Latino

    0.0 1h 34m 2018

    Dos universitarios recién graduados discuten borrachos sobre quién de sus padres ganaría una pelea....

    Director: Tyler Spindel

    Género: Comedia

    Actores: Ralph Ayala

  • ¡Hombre al agua! (2018) WEB-DL 1080p Latino

    2018
    ¡Hombre al agua! (2018) WEB-DL 1080p Latino

    5.0 1 h 52 min 2018

    Kate es una madre soltera, trabajadora, madre de tres hijas, contratada para limpiar un yate de lujo...

    Director: Rob Greenberg

    Género: Comedia

    Actores: Toby Hargrave

  • Tully (2018) WEB-DL 1080p Latino

    2018
    Tully (2018) WEB-DL 1080p Latino

    5.0 1h 36m 2018

    La historia de una mujer con tres hijos que, incapaz de lidiar con su bebé recién nacido, contrata...

    Director: Jason Reitman

    Género: Comedia

    Actores: Stormy Ent

Comentarios 0