Un viaje en el tiempo (2018) Full 1080p Latino

2.333 vistas
1 estrella2 estrellas3 estrellas4 estrellas5 estrellas (7 votos, promedio: 3,86 de 5)
Cargando…

Información de Un viaje en el tiempo (2018) Full 1080p Latino

Datos de la película

  • Calidad: Full 1080p
  • Audio: Español Latino AC3 5.1 BLURAY - Ingles DTS 5.1 BLURAY
  • Subtitulos: Español Latino PGS - Ingles PGS
  • Resolución: 1920x1080p
  • Formato: MKV
  • Codec: H.264
  • Encoder: Dracarys
  • Mediainfo: Clic para Mostrar Datos Ver
  • Format                                   : Matroska
    Format version                           : Version 4 / Version 2
    File size                                : 4.50 GiB
    Duration                                 : 1 h 49 min
    Overall bit rate                         : 5 880 kb/s
    Movie name                               : CinemaniaHDD.net
    Encoded date                             : UTC 2018-05-29 18:05:57 / UTC 2018-05-29T06:59:32Z
    Writing application                      : mkvmerge v15.0.0 ('Duel with the Devil') 64-bit
    Writing library                          : libebml v1.3.5 + libmatroska v1.4.5 / Lavf57.7.2

    Video
    ID                                       : 1
    Format                                   : AVC
    Format/Info                              : Advanced Video Codec
    Format profile                           : High@L4.1
    Format settings                          : CABAC / 4 Ref Frames
    Format settings, CABAC                   : Yes
    Format settings, RefFrames               : 4 frames
    Codec ID                                 : V_MPEG4/ISO/AVC
    Duration                                 : 1 h 49 min
    Bit rate                                 : 3 614 kb/s
    Width                                    : 1 920 pixels
    Height                                   : 1 080 pixels
    Display aspect ratio                     : 16:9
    Frame rate mode                          : Constant
    Frame rate                               : 23.976 (24000/1001) FPS
    Color space                              : YUV
    Chroma subsampling                       : 4:2:0
    Bit depth                                : 8 bits
    Scan type                                : Progressive
    Bits/(Pixel*Frame)                       : 0.073
    Stream size                              : 2.77 GiB (61%)
    Title                                    : Un viaje en el tiempo (2018) Full 1080p Latino
    Writing library                          : x264 core 148 r2708 86b7198
    Encoding settings                        : cabac=1 / ref=4 / deblock=1:0:0 / analyse=0x3:0x133 / me=esa / subme=9 / psy=1 / psy_rd=1.00:0.00 / mixed_ref=1 / me_range=16 / chroma_me=1 / trellis=2 / 8x8dct=1 / cqm=0 / deadzone=21,11 / fast_pskip=1 / chroma_qp_offset=-2 / threads=34 / lookahead_threads=2 / sliced_threads=0 / nr=0 / decimate=1 / interlaced=0 / bluray_compat=0 / constrained_intra=0 / bframes=3 / b_pyramid=2 / b_adapt=2 / b_bias=0 / direct=3 / weightb=1 / open_gop=0 / weightp=2 / keyint=240 / keyint_min=24 / scenecut=40 / intra_refresh=0 / rc_lookahead=60 / rc=crf / mbtree=1 / crf=20.0 / qcomp=0.60 / qpmin=0 / qpmax=69 / qpstep=4 / vbv_maxrate=62500 / vbv_bufsize=78125 / crf_max=0.0 / nal_hrd=none / filler=0 / ip_ratio=1.40 / aq=1:1.00
    Language                                 : English
    Default                                  : Yes
    Forced                                   : No
    Color range                              : Limited
    Color primaries                          : BT.709
    Transfer characteristics                 : BT.709
    Matrix coefficients                      : BT.709
    Statistics Tags Issue                    : mkvmerge v15.0.0 ('Duel with the Devil') 64-bit 2018-05-29 18:05:57 / mkvmerge v15.0.0 ('Duel with the Devil') 64-bit 2018-05-29 18:05:57 / UTC 2018-05-29T06:59:32Z
    FromStats_BitRate                        : 3708318
    FromStats_Duration                       : 01:49:37.446000000
    FromStats_FrameCount                     : 157701
    FromStats_StreamSize                     : 3048907832

    Audio #1
    ID                                       : 2
    Format                                   : AC-3
    Format/Info                              : Audio Coding 3
    Format settings, Endianness              : Big
    Codec ID                                 : A_AC3
    Duration                                 : 1 h 49 min
    Bit rate mode                            : Constant
    Bit rate                                 : 640 kb/s
    Channel(s)                               : 6 channels
    Channel positions                        : Front: L C R, Side: L R, LFE
    Sampling rate                            : 48.0 kHz
    Frame rate                               : 31.250 FPS (1536 SPF)
    Bit depth                                : 16 bits
    Compression mode                         : Lossy
    Stream size                              : 502 MiB (11%)
    Language                                 : Spanish
    Service kind                             : Complete Main
    Default                                  : Yes
    Forced                                   : No
    Statistics Tags Issue                    : mkvmerge v15.0.0 ('Duel with the Devil') 64-bit 2018-05-29 18:05:57 / mkvmerge v15.0.0 ('Duel with the Devil') 64-bit 2018-05-29 18:05:57 / UTC 2018-05-29T06:59:32Z
    FromStats_BitRate                        : 640000
    FromStats_Duration                       : 01:49:37.472000000
    FromStats_FrameCount                     : 205546
    FromStats_StreamSize                     : 526197760

    Audio #2
    ID                                       : 3
    Format                                   : DTS
    Format/Info                              : Digital Theater Systems
    Mode                                     : 16
    Format settings, Endianness              : Big
    Codec ID                                 : A_DTS
    Duration                                 : 1 h 49 min
    Bit rate mode                            : Constant
    Bit rate                                 : 1 509 kb/s
    Channel(s)                               : 6 channels
    Channel positions                        : Front: L C R, Side: L R, LFE
    Sampling rate                            : 48.0 kHz
    Frame rate                               : 93.750 FPS (512 SPF)
    Bit depth                                : 24 bits
    Compression mode                         : Lossy
    Stream size                              : 1.16 GiB (26%)
    Language                                 : English
    Default                                  : No
    Forced                                   : No
    Statistics Tags Issue                    : mkvmerge v15.0.0 ('Duel with the Devil') 64-bit 2018-05-29 18:05:57 / mkvmerge v15.0.0 ('Duel with the Devil') 64-bit 2018-05-29 18:05:57 / UTC 2018-05-29T06:59:32Z
    FromStats_BitRate                        : 1509000
    FromStats_Duration                       : 01:49:37.440000000
    FromStats_FrameCount                     : 616635
    FromStats_StreamSize                     : 1240669620

    Text #1
    ID                                       : 4
    Format                                   : PGS
    Muxing mode                              : zlib
    Codec ID                                 : S_HDMV/PGS
    Codec ID/Info                            : Picture based subtitle format used on BDs/HD-DVDs
    Language                                 : English
    Default                                  : No
    Forced                                   : No
    Statistics Tags Issue                    : mkvmerge v15.0.0 ('Duel with the Devil') 64-bit 2018-05-29 18:05:57 / mkvmerge v15.0.0 ('Duel with the Devil') 64-bit 2018-05-29 18:05:57 / UTC 2018-05-29T06:59:32Z
    FromStats_BitRate                        : 35372
    FromStats_Duration                       : 01:46:50.529000000
    FromStats_FrameCount                     : 3204
    FromStats_StreamSize                     : 28344502

    Text #2
    ID                                       : 5
    Format                                   : PGS
    Muxing mode                              : zlib
    Codec ID                                 : S_HDMV/PGS
    Codec ID/Info                            : Picture based subtitle format used on BDs/HD-DVDs
    Language                                 : Spanish
    Default                                  : No
    Forced                                   : No
    Statistics Tags Issue                    : mkvmerge v15.0.0 ('Duel with the Devil') 64-bit 2018-05-29 18:05:57 / mkvmerge v15.0.0 ('Duel with the Devil') 64-bit 2018-05-29 18:05:57 / UTC 2018-05-29T06:59:32Z
    FromStats_BitRate                        : 28405
    FromStats_Duration                       : 01:40:26.187000000
    FromStats_FrameCount                     : 2600
    FromStats_StreamSize                     : 21397448

    Menu
    00:00:00.000                             : :Chapter 1
    00:09:39.871                             : :Chapter 2
    00:13:46.868                             : :Chapter 3
    00:18:04.083                             : :Chapter 4
    00:21:28.287                             : :Chapter 5
    00:28:32.502                             : :Chapter 6
    00:39:14.811                             : :Chapter 7
    00:48:41.252                             : :Chapter 8
    00:54:03.198                             : :Chapter 9
    01:03:04.531                             : :Chapter 10
    01:09:48.267                             : :Chapter 11
    01:19:03.197                             : :Chapter 12
    01:29:05.549                             : :Chapter 13
    01:40:03.498                             : :Chapter 14

  • Peso: 4.50 GiB

Sinopsis

Tras la desaparición de su padre, un científico, tres seres peculiares envían a la joven Meg, a su hermano Charles y a su amigo Calvin al espacio, para intentar encontrarlo. Adaptación de la novela de Madeleine L’Engle.

Ficha técnica

Video trailer de la película

Enlaces de descarga

Rip de Bluray

Descargar Un viaje en el tiempo (2018) Full 1080p Latino




Aportes de DPeliculasHDmega la pass es:dpeliculashdmega.org Aportes de CinemaniaHD la pass es:cinemaniahdd.com

Películas relacionadas

  • Sicario (2015) Full 1080p Latino

    2015
    Sicario (2015) Full 1080p Latino

    5.0 2h 1m 2015

    En la zona fronteriza que se extiende entre Estados Unidos y México la joven Kate Macer, una idealista...

    Director: Judi Townsend

    Género: Acción

    Actores: Victor Garber

  • Fahrenheit 451 (2018) Full 1080p Latino

    2018
    Fahrenheit 451 (2018) Full 1080p Latino

    5.0 1h 36m 2018

    Michael B. Jordan y Michael Shannon protagonizan esta adaptación de HBO de la clásica novela distópica...

    Director: Ramin Bahrani

    Género: Ciencia ficción

    Actores: Tim Post

  • Atlantis el imperio perdido (2001) Full 1080p Latino

    2001
    Atlantis el imperio perdido (2001) Full 1080p Latino

    5.0 1h 35m 2001

    Un joven aventurero llamado Milo encuentra un antiguo diario que contiene pistas de cómo llegar a Atlantis,...

    Director: Lam Hoang

    Género: Animación

    Actores: Phil Morris

Comentarios 0