Un viaje en el tiempo (2018) 1080p Latino

1.888 vistas
1 estrella2 estrellas3 estrellas4 estrellas5 estrellas (4 votos, promedio: 2,75 de 5)
Cargando…

Información de Un viaje en el tiempo (2018) 1080p Latino

Datos de la película

  • Calidad: 1080p
  • Audio: Español Latino AC3 5.1 DVD - Ingles AC3 5.1 BLURAY
  • Subtitulos: Español Latino SRT- FORZADOS SRT
  • Resolución: 1920x804x
  • Formato: MKV
  • Codec: H.264
  • Encoder: Dracarys
  • Mediainfo: Clic para Mostrar Datos Ver
  • Format                                   : Matroska
    Format version                           : Version 4 / Version 2
    File size                                : 3.44 GiB
    Duration                                 : 1 h 49 min
    Overall bit rate                         : 4 497 kb/s
    Movie name                               : CinemaniaHDD.net
    Encoded date                             : UTC 2018-05-25 06:05:46 / UTC 2018-05-25T04:40:15Z
    Writing application                      : mkvmerge v15.0.0 ('Duel with the Devil') 64-bit
    Writing library                          : libebml v1.3.5 + libmatroska v1.4.5 / Lavf57.7.2

    Video
    ID                                       : 1
    Format                                   : AVC
    Format/Info                              : Advanced Video Codec
    Format profile                           : High@L4.1
    Format settings                          : CABAC / 4 Ref Frames
    Format settings, CABAC                   : Yes
    Format settings, RefFrames               : 4 frames
    Codec ID                                 : V_MPEG4/ISO/AVC
    Duration                                 : 1 h 49 min
    Bit rate                                 : 3 500 kb/s
    Width                                    : 1 920 pixels
    Height                                   : 804 pixels
    Display aspect ratio                     : 2.40:1
    Frame rate mode                          : Constant
    Frame rate                               : 23.976 (24000/1001) FPS
    Color space                              : YUV
    Chroma subsampling                       : 4:2:0
    Bit depth                                : 8 bits
    Scan type                                : Progressive
    Bits/(Pixel*Frame)                       : 0.095
    Stream size                              : 2.59 GiB (75%)
    Title                                    : Un viaje en el tiempo (2018) 1080p Latino
    Writing library                          : x264 core 148 r2708 86b7198
    Encoding settings                        : cabac=1 / ref=3 / deblock=1:0:0 / analyse=0x3:0x113 / me=hex / subme=7 / psy=1 / psy_rd=1.00:0.00 / mixed_ref=1 / me_range=16 / chroma_me=1 / trellis=1 / 8x8dct=1 / cqm=0 / deadzone=21,11 / fast_pskip=1 / chroma_qp_offset=-2 / threads=25 / lookahead_threads=4 / sliced_threads=0 / nr=0 / decimate=1 / interlaced=0 / bluray_compat=0 / constrained_intra=0 / bframes=3 / b_pyramid=2 / b_adapt=1 / b_bias=0 / direct=1 / weightb=1 / open_gop=0 / weightp=2 / keyint=240 / keyint_min=24 / scenecut=40 / intra_refresh=0 / rc_lookahead=40 / rc=abr / mbtree=1 / bitrate=3500 / ratetol=1.0 / qcomp=0.60 / qpmin=0 / qpmax=69 / qpstep=4 / vbv_maxrate=62500 / vbv_bufsize=78125 / nal_hrd=none / filler=0 / ip_ratio=1.40 / aq=1:1.00
    Language                                 : English
    Default                                  : Yes
    Forced                                   : No
    Color range                              : Limited
    Color primaries                          : BT.709
    Transfer characteristics                 : BT.709
    Matrix coefficients                      : BT.709
    Statistics Tags Issue                    : mkvmerge v15.0.0 ('Duel with the Devil') 64-bit 2018-05-25 06:05:46 / mkvmerge v15.0.0 ('Duel with the Devil') 64-bit 2018-05-25 06:05:46 / UTC 2018-05-25T04:40:15Z
    FromStats_BitRate                        : 3471186
    FromStats_Duration                       : 01:49:37.404000000
    FromStats_FrameCount                     : 157700
    FromStats_StreamSize                     : 2853924806

    Audio #1
    ID                                       : 2
    Format                                   : AC-3
    Format/Info                              : Audio Coding 3
    Format settings, Endianness              : Big
    Codec ID                                 : A_AC3
    Duration                                 : 1 h 49 min
    Bit rate mode                            : Constant
    Bit rate                                 : 384 kb/s
    Channel(s)                               : 6 channels
    Channel positions                        : Front: L C R, Side: L R, LFE
    Sampling rate                            : 48.0 kHz
    Frame rate                               : 31.250 FPS (1536 SPF)
    Bit depth                                : 16 bits
    Compression mode                         : Lossy
    Delay relative to video                  : 995 ms
    Stream size                              : 301 MiB (9%)
    Language                                 : Spanish
    Service kind                             : Complete Main
    Default                                  : Yes
    Forced                                   : No
    Statistics Tags Issue                    : mkvmerge v15.0.0 ('Duel with the Devil') 64-bit 2018-05-25 06:05:46 / mkvmerge v15.0.0 ('Duel with the Devil') 64-bit 2018-05-25 06:05:46 / UTC 2018-05-25T04:40:15Z
    FromStats_BitRate                        : 384000
    FromStats_Duration                       : 01:49:36.608000000
    FromStats_FrameCount                     : 205519
    FromStats_StreamSize                     : 315677184

    Audio #2
    ID                                       : 3
    Format                                   : AC-3
    Format/Info                              : Audio Coding 3
    Format settings, Endianness              : Big
    Codec ID                                 : A_AC3
    Duration                                 : 1 h 49 min
    Bit rate mode                            : Constant
    Bit rate                                 : 640 kb/s
    Channel(s)                               : 6 channels
    Channel positions                        : Front: L C R, Side: L R, LFE
    Sampling rate                            : 48.0 kHz
    Frame rate                               : 31.250 FPS (1536 SPF)
    Bit depth                                : 16 bits
    Compression mode                         : Lossy
    Delay relative to video                  : -5 ms
    Stream size                              : 502 MiB (14%)
    Language                                 : English
    Service kind                             : Complete Main
    Default                                  : No
    Forced                                   : No
    Statistics Tags Issue                    : mkvmerge v15.0.0 ('Duel with the Devil') 64-bit 2018-05-25 06:05:46 / mkvmerge v15.0.0 ('Duel with the Devil') 64-bit 2018-05-25 06:05:46 / UTC 2018-05-25T04:40:15Z
    FromStats_BitRate                        : 640000
    FromStats_Duration                       : 01:49:37.440000000
    FromStats_FrameCount                     : 205545
    FromStats_StreamSize                     : 526195200

    Text #1
    ID                                       : 4
    Format                                   : UTF-8
    Codec ID                                 : S_TEXT/UTF8
    Codec ID/Info                            : UTF-8 Plain Text
    Title                                    : Forzados
    Language                                 : Spanish
    Default                                  : Yes
    Forced                                   : Yes
    Statistics Tags Issue                    : mkvmerge v15.0.0 ('Duel with the Devil') 64-bit 2018-05-25 06:05:46 / mkvmerge v15.0.0 ('Duel with the Devil') 64-bit 2018-05-25 06:05:46 / UTC 2018-05-25T04:40:15Z
    FromStats_BitRate                        : 1
    FromStats_Duration                       : 00:11:08.218000000
    FromStats_FrameCount                     : 3
    FromStats_StreamSize                     : 107

    Text #2
    ID                                       : 5
    Format                                   : UTF-8
    Codec ID                                 : S_TEXT/UTF8
    Codec ID/Info                            : UTF-8 Plain Text
    Language                                 : Spanish
    Default                                  : No
    Forced                                   : No
    Statistics Tags Issue                    : mkvmerge v15.0.0 ('Duel with the Devil') 64-bit 2018-05-25 06:05:46 / mkvmerge v15.0.0 ('Duel with the Devil') 64-bit 2018-05-25 06:05:46 / UTC 2018-05-25T04:40:15Z
    FromStats_BitRate                        : 46
    FromStats_Duration                       : 01:38:30.478000000
    FromStats_FrameCount                     : 1297
    FromStats_StreamSize                     : 34003

    Menu
    00:00:00.000                             : :00:00:00.000
    00:09:39.871                             : :00:09:39.871
    00:13:46.868                             : :00:13:46.868
    00:18:04.083                             : :00:18:04.083
    00:21:28.287                             : :00:21:28.287
    00:28:32.502                             : :00:28:32.502
    00:39:14.811                             : :00:39:14.811
    00:48:41.252                             : :00:48:41.252
    00:54:03.198                             : :00:54:03.198
    01:03:04.531                             : :01:03:04.531
    01:09:48.267                             : :01:09:48.267
    01:19:03.197                             : :01:19:03.197
    01:29:05.549                             : :01:29:05.549
    01:40:03.623                             : :01:40:03.497

  • Peso: 3.44 GiB

Sinopsis

Tras la desaparición de su padre, un científico, tres seres peculiares envían a la joven Meg, a su hermano Charles y a su amigo Calvin al espacio, para intentar encontrarlo. Adaptación de la novela de Madeleine L’Engle.

Ficha técnica

Video trailer de la película

Enlaces de descarga

Rip de Bluray

Descargar Un viaje en el tiempo (2018) 1080p Latino




Aportes de DPeliculasHDmega la pass es:dpeliculashdmega.org Aportes de CinemaniaHD la pass es:cinemaniahdd.com

Películas relacionadas

  • No me las toquen (2018) 1080p Latino

    2018
    No me las toquen (2018) 1080p Latino

    3.0 1h 42m 2018

    Cuando una madre y dos padres descubren que sus respectivas hijas han hecho un pacto para perder la virginidad...

    Director: Kay Cannon

    Género: 1080p Portada Negra

    Actores: T.C. Carter

  • El sentido de un final (2017) 1080p Latino

    2017
    El sentido de un final (2017) 1080p Latino

    0.0 1h 48m 2017

    Tony Webster, un hombre jubilado y divorciado, mantiene una tranquila y solitaria vida. Un día descubre...

    Director: Ritesh Batra

    Género: 1080p Portada Negra

    Actores: Timothy Innes

Comentarios 0