Un mujeriego en apuros (1990) Full 1080p Latino

772 vistas
1 estrella2 estrellas3 estrellas4 estrellas5 estrellas (1 votos, promedio: 5,00 de 5)
Cargando…

Información de Un mujeriego en apuros (1990) Full 1080p Latino

Datos de la película

  • Calidad: Full 1080p
  • Audio: Español Latino AC3 2.0 BLURAY - Ingles DTS 5.1 BLURAY
  • Subtitulos: Español Latino PGS - Ingles PGS
  • Resolución: 1920x1080p
  • Formato: MKV
  • Codec: H.264
  • Encoder: Dracarys
  • Mediainfo: Clic para Mostrar Datos Ver
  • Format                                   : Matroska
    Format version                           : Version 4 / Version 2
    File size                                : 12.1 GiB
    Duration                                 : 1 h 37 min
    Overall bit rate                         : 17.7 Mb/s
    Movie name                               : CinemaniaHDD.com
    Encoded date                             : UTC 2018-04-05 05:27:31 / UTC 2018-04-01T21:35:26Z
    Writing application                      : mkvmerge v15.0.0 ('Duel with the Devil') 64-bit
    Writing library                          : libebml v1.3.5 + libmatroska v1.4.5 / Lavf57.7.2

    Video
    ID                                       : 1
    Format                                   : AVC
    Format/Info                              : Advanced Video Codec
    Format profile                           : High@L4.1
    Format settings                          : CABAC / 4 Ref Frames
    Format settings, CABAC                   : Yes
    Format settings, RefFrames               : 4 frames
    Codec ID                                 : V_MPEG4/ISO/AVC
    Duration                                 : 1 h 37 min
    Bit rate                                 : 15.7 Mb/s
    Width                                    : 1 920 pixels
    Height                                   : 1 080 pixels
    Display aspect ratio                     : 16:9
    Frame rate mode                          : Constant
    Frame rate                               : 23.976 (24000/1001) FPS
    Color space                              : YUV
    Chroma subsampling                       : 4:2:0
    Bit depth                                : 8 bits
    Scan type                                : Progressive
    Bits/(Pixel*Frame)                       : 0.316
    Stream size                              : 10.7 GiB (88%)
    Title                                    : Un mujeriego en apuros (1990) Full 1080p Latino
    Writing library                          : x264 core 148 r2708 86b7198
    Encoding settings                        : cabac=1 / ref=4 / deblock=1:0:0 / analyse=0x3:0x133 / me=esa / subme=9 / psy=1 / psy_rd=1.00:0.00 / mixed_ref=1 / me_range=16 / chroma_me=1 / trellis=2 / 8x8dct=1 / cqm=0 / deadzone=21,11 / fast_pskip=1 / chroma_qp_offset=-2 / threads=34 / lookahead_threads=2 / sliced_threads=0 / nr=0 / decimate=1 / interlaced=0 / bluray_compat=0 / constrained_intra=0 / bframes=3 / b_pyramid=2 / b_adapt=2 / b_bias=0 / direct=3 / weightb=1 / open_gop=0 / weightp=2 / keyint=240 / keyint_min=24 / scenecut=40 / intra_refresh=0 / rc_lookahead=60 / rc=crf / mbtree=1 / crf=20.0 / qcomp=0.60 / qpmin=0 / qpmax=69 / qpstep=4 / vbv_maxrate=62500 / vbv_bufsize=78125 / crf_max=0.0 / nal_hrd=none / filler=0 / ip_ratio=1.40 / aq=1:1.00
    Language                                 : English
    Default                                  : Yes
    Forced                                   : No
    Color range                              : Limited
    Color primaries                          : BT.709
    Transfer characteristics                 : BT.709
    Matrix coefficients                      : BT.709
    Statistics Tags Issue                    : mkvmerge v15.0.0 ('Duel with the Devil') 64-bit 2018-04-05 05:27:31 / mkvmerge v15.0.0 ('Duel with the Devil') 64-bit 2018-04-05 05:27:31 / UTC 2018-04-01T21:35:26Z
    FromStats_BitRate                        : 15995946
    FromStats_Duration                       : 01:37:39.896000000
    FromStats_FrameCount                     : 140497
    FromStats_StreamSize                     : 11716822618

    Audio #1
    ID                                       : 2
    Format                                   : AC-3
    Format/Info                              : Audio Coding 3
    Format settings, Endianness              : Big
    Codec ID                                 : A_AC3
    Duration                                 : 1 h 37 min
    Bit rate mode                            : Constant
    Bit rate                                 : 192 kb/s
    Channel(s)                               : 2 channels
    Channel positions                        : Front: L R
    Sampling rate                            : 48.0 kHz
    Frame rate                               : 31.250 FPS (1536 SPF)
    Bit depth                                : 16 bits
    Compression mode                         : Lossy
    Delay relative to video                  : 12 s 900 ms
    Stream size                              : 134 MiB (1%)
    Language                                 : Spanish
    Service kind                             : Complete Main
    Default                                  : Yes
    Forced                                   : No
    Statistics Tags Issue                    : mkvmerge v15.0.0 ('Duel with the Devil') 64-bit 2018-04-05 05:27:31 / mkvmerge v15.0.0 ('Duel with the Devil') 64-bit 2018-04-05 05:27:31 / UTC 2018-04-01T21:35:26Z
    FromStats_BitRate                        : 192000
    FromStats_Duration                       : 01:37:25.664000000
    FromStats_FrameCount                     : 182677
    FromStats_StreamSize                     : 140295936

    Audio #2
    ID                                       : 3
    Format                                   : DTS
    Format/Info                              : Digital Theater Systems
    Mode                                     : 16
    Format settings, Endianness              : Big
    Codec ID                                 : A_DTS
    Duration                                 : 1 h 37 min
    Bit rate mode                            : Constant
    Bit rate                                 : 1 509 kb/s
    Channel(s)                               : 2 channels
    Channel positions                        : Front: L R
    Sampling rate                            : 48.0 kHz
    Frame rate                               : 93.750 FPS (512 SPF)
    Bit depth                                : 16 bits
    Compression mode                         : Lossy
    Delay relative to video                  : 11 s 11 ms
    Stream size                              : 1.03 GiB (9%)
    Language                                 : English
    Default                                  : No
    Forced                                   : No
    Statistics Tags Issue                    : mkvmerge v15.0.0 ('Duel with the Devil') 64-bit 2018-04-05 05:27:31 / mkvmerge v15.0.0 ('Duel with the Devil') 64-bit 2018-04-05 05:27:31 / UTC 2018-04-01T21:35:26Z
    FromStats_BitRate                        : 1508999
    FromStats_Duration                       : 01:37:28.918000000
    FromStats_FrameCount                     : 548336
    FromStats_StreamSize                     : 1103252032

    Text #1
    ID                                       : 4
    Format                                   : UTF-8
    Codec ID                                 : S_TEXT/UTF8
    Codec ID/Info                            : UTF-8 Plain Text
    Title                                    : SRT
    Language                                 : Spanish
    Default                                  : No
    Forced                                   : No
    Statistics Tags Issue                    : mkvmerge v15.0.0 ('Duel with the Devil') 64-bit 2018-04-05 05:27:31 / mkvmerge v15.0.0 ('Duel with the Devil') 64-bit 2018-04-05 05:27:31 / UTC 2018-04-01T21:35:26Z
    FromStats_BitRate                        : 93
    FromStats_Duration                       : 01:30:31.107000000
    FromStats_FrameCount                     : 1850
    FromStats_StreamSize                     : 63265

    Text #2
    ID                                       : 5
    Format                                   : PGS
    Muxing mode                              : zlib
    Codec ID                                 : S_HDMV/PGS
    Codec ID/Info                            : Picture based subtitle format used on BDs/HD-DVDs
    Language                                 : English
    Default                                  : No
    Forced                                   : No
    Statistics Tags Issue                    : mkvmerge v15.0.0 ('Duel with the Devil') 64-bit 2018-04-05 05:27:31 / mkvmerge v15.0.0 ('Duel with the Devil') 64-bit 2018-04-05 05:27:31 / UTC 2018-04-01T21:35:26Z
    FromStats_BitRate                        : 51122
    FromStats_Duration                       : 01:30:33.970000000
    FromStats_FrameCount                     : 4038
    FromStats_StreamSize                     : 34724527

    Text #3
    ID                                       : 6
    Format                                   : PGS
    Muxing mode                              : zlib
    Codec ID                                 : S_HDMV/PGS
    Codec ID/Info                            : Picture based subtitle format used on BDs/HD-DVDs
    Language                                 : Spanish
    Default                                  : No
    Forced                                   : No
    Statistics Tags Issue                    : mkvmerge v15.0.0 ('Duel with the Devil') 64-bit 2018-04-05 05:27:31 / mkvmerge v15.0.0 ('Duel with the Devil') 64-bit 2018-04-05 05:27:31 / UTC 2018-04-01T21:35:26Z
    FromStats_BitRate                        : 86589
    FromStats_Duration                       : 01:30:31.139000000
    FromStats_FrameCount                     : 3700
    FromStats_StreamSize                     : 58784928

    Menu
    00:00:00.000                             : :Chapter 1
    00:13:05.451                             : :Chapter 2
    00:23:10.097                             : :Chapter 3
    00:33:42.812                             : :Chapter 4
    00:48:49.593                             : :Chapter 5
    00:57:22.606                             : :Chapter 6
    01:10:46.284                             : :Chapter 7
    01:23:48.106                             : :Chapter 8

  • Peso: 12.1 GiB

Sinopsis

Joey O’Brian es un eficiente vendedor de coches neoyorquino con una vida repleta de mujeres: su exigente amante Joy, su extrovertida amiga Lila, su ex esposa Tina, su alocada hija adolescente y una madre a la que cuidar. Las muchas mujeres a las que llega a mantener le obligan a sostener un elevadísimo nivel de vida, pero todo su mundo se desmorona cuando el número de ventas baja y Joel tiene tan solo un día para demostrar que su puesto de trabajo es necesario. Todo marcha bien hasta que aparece en la exposición el marido celoso de su joven y bella secretaria Donna, convencido de que es allí donde se encuentra su amante.

Ficha técnica

Video trailer de la película

Enlaces de descarga

Rip de Bluray

Descargar Un mujeriego en apuros (1990) Full 1080p Latino




Aportes de DPeliculasHDmega la pass es:dpeliculashdmega.org Aportes de CinemaniaHD la pass es:cinemaniahdd.com

Películas relacionadas

  • ¡Hombre al agua! (2018) 1080p Latino

    2018
    ¡Hombre al agua! (2018) 1080p Latino

    5.0 1 h 52 min 2018

    Kate es una madre soltera, trabajadora, madre de tres hijas, contratada para limpiar un yate de lujo...

    Director: Rob Greenberg

    Género: 1080p Portada Negra

    Actores: Toby Hargrave

  • El alma de la fiesta (2018) 1080p Latino

    2018
    El alma de la fiesta (2018) 1080p Latino

    0.0 1 h 44 min 2018

    Después de haber sido abandonada por su esposo, Deanna, ama de casa, decide darle un giro a su vida...

    Director: Ben Falcone

    Género: Comedia

    Actores: Yani Simone

  • Tully (2018) 1080p Latino

    2018
    Tully (2018) 1080p Latino

    0.0 1 h 35 min 2018

    La historia de una mujer con tres hijos que, incapaz de lidiar con su bebé recién nacido, contrata...

    Director: Jason Reitman

    Género: Comedia

    Actores: Stormy Ent

  • Si solo pudiera imaginar (2018) Full 1080p Latino

    2018
    Si solo pudiera imaginar (2018) Full 1080p Latino

    4.8 1 h 50 min 2018

    La historia real de la aclamada canción "I Can Only Imagine", la canción cristiana contemporánea más...

    Director: Jon Erwin

    Género: Drama

    Actores: Trace Adkins

  • El padre del año (2018) WEB-DL 1080p Latino

    2018
    El padre del año (2018) WEB-DL 1080p Latino

    0.0 1h 34m 2018

    Dos universitarios recién graduados discuten borrachos sobre quién de sus padres ganaría una pelea....

    Director: Tyler Spindel

    Género: Comedia

    Actores: Ralph Ayala

Comentarios 0