Un lugar en silencio (2018) Full 1080p Latino

2.327 vistas
1 estrella2 estrellas3 estrellas4 estrellas5 estrellas (4 votos, promedio: 5,00 de 5)
Cargando…

Información de Un lugar en silencio (2018) Full 1080p Latino

Datos de la película

  • Calidad: Full 1080p
  • Audio: Español Latino AC3 5.1 BLURAY - Ingles AC3 5.1 BLURAY
  • Subtitulos: Español Latino PGS - Ingles PGS
  • Resolución: 1920x1080p
  • Formato: MKV
  • Codec: H.264
  • Encoder: Dracarys
  • Mediainfo: Clic para Mostrar Datos Ver
  • Format                                   : Matroska
    Format version                           : Version 4 / Version 2
    File size                                : 3.61 GiB
    Duration                                 : 1 h 30 min
    Overall bit rate                         : 5 733 kb/s
    Movie name                               : CinemaniaHDD.net
    Encoded date                             : UTC 2018-07-03 04:08:32 / UTC 2018-07-02T04:45:08Z
    Writing application                      : mkvmerge v15.0.0 ('Duel with the Devil') 64-bit
    Writing library                          : libebml v1.3.5 + libmatroska v1.4.5 / Lavf57.7.2

    Video
    ID                                       : 1
    Format                                   : AVC
    Format/Info                              : Advanced Video Codec
    Format profile                           : High@L4.1
    Format settings                          : CABAC / 4 Ref Frames
    Format settings, CABAC                   : Yes
    Format settings, RefFrames               : 4 frames
    Codec ID                                 : V_MPEG4/ISO/AVC
    Duration                                 : 1 h 30 min
    Bit rate                                 : 4 339 kb/s
    Width                                    : 1 920 pixels
    Height                                   : 1 080 pixels
    Display aspect ratio                     : 16:9
    Frame rate mode                          : Constant
    Frame rate                               : 23.976 (24000/1001) FPS
    Color space                              : YUV
    Chroma subsampling                       : 4:2:0
    Bit depth                                : 8 bits
    Scan type                                : Progressive
    Bits/(Pixel*Frame)                       : 0.087
    Stream size                              : 2.74 GiB (76%)
    Title                                    : Un lugar en silencio (2018) Full 1080p Latino
    Writing library                          : x264 core 148 r2708 86b7198
    Encoding settings                        : cabac=1 / ref=4 / deblock=1:0:0 / analyse=0x3:0x133 / me=esa / subme=10 / psy=1 / psy_rd=1.00:0.00 / mixed_ref=1 / me_range=24 / chroma_me=1 / trellis=2 / 8x8dct=1 / cqm=0 / deadzone=21,11 / fast_pskip=1 / chroma_qp_offset=-2 / threads=34 / lookahead_threads=5 / sliced_threads=0 / nr=0 / decimate=1 / interlaced=0 / bluray_compat=0 / constrained_intra=0 / bframes=8 / b_pyramid=2 / b_adapt=2 / b_bias=0 / direct=3 / weightb=1 / open_gop=0 / weightp=2 / keyint=240 / keyint_min=24 / scenecut=40 / intra_refresh=0 / rc_lookahead=60 / rc=crf / mbtree=1 / crf=20.0 / qcomp=0.60 / qpmin=0 / qpmax=69 / qpstep=4 / vbv_maxrate=62500 / vbv_bufsize=78125 / crf_max=0.0 / nal_hrd=none / filler=0 / ip_ratio=1.40 / aq=1:1.00
    Language                                 : English
    Default                                  : Yes
    Forced                                   : No
    Color range                              : Limited
    Color primaries                          : BT.709
    Transfer characteristics                 : BT.709
    Matrix coefficients                      : BT.709
    Statistics Tags Issue                    : mkvmerge v15.0.0 ('Duel with the Devil') 64-bit 2018-07-03 04:08:32 / mkvmerge v15.0.0 ('Duel with the Devil') 64-bit 2018-07-03 04:08:32 / UTC 2018-07-02T04:45:08Z
    FromStats_BitRate                        : 4449441
    FromStats_Duration                       : 01:30:14.910000000
    FromStats_FrameCount                     : 129828
    FromStats_StreamSize                     : 3011665778

    Audio #1
    ID                                       : 2
    Format                                   : AC-3
    Format/Info                              : Audio Coding 3
    Format settings, Endianness              : Big
    Codec ID                                 : A_AC3
    Duration                                 : 1 h 30 min
    Bit rate mode                            : Constant
    Bit rate                                 : 640 kb/s
    Channel(s)                               : 6 channels
    Channel positions                        : Front: L C R, Side: L R, LFE
    Sampling rate                            : 48.0 kHz
    Frame rate                               : 31.250 FPS (1536 SPF)
    Bit depth                                : 16 bits
    Compression mode                         : Lossy
    Stream size                              : 413 MiB (11%)
    Language                                 : Spanish
    Service kind                             : Complete Main
    Default                                  : Yes
    Forced                                   : No
    Statistics Tags Issue                    : mkvmerge v15.0.0 ('Duel with the Devil') 64-bit 2018-07-03 04:08:32 / mkvmerge v15.0.0 ('Duel with the Devil') 64-bit 2018-07-03 04:08:32 / UTC 2018-07-02T04:45:08Z
    FromStats_BitRate                        : 640000
    FromStats_Duration                       : 01:30:14.912000000
    FromStats_FrameCount                     : 169216
    FromStats_StreamSize                     : 433192960

    Audio #2
    ID                                       : 3
    Format                                   : AC-3
    Format/Info                              : Audio Coding 3
    Format settings, Endianness              : Big
    Codec ID                                 : A_AC3
    Duration                                 : 1 h 30 min
    Bit rate mode                            : Constant
    Bit rate                                 : 640 kb/s
    Channel(s)                               : 6 channels
    Channel positions                        : Front: L C R, Side: L R, LFE
    Sampling rate                            : 48.0 kHz
    Frame rate                               : 31.250 FPS (1536 SPF)
    Bit depth                                : 16 bits
    Compression mode                         : Lossy
    Stream size                              : 413 MiB (11%)
    Language                                 : English
    Service kind                             : Complete Main
    Default                                  : No
    Forced                                   : No
    Statistics Tags Issue                    : mkvmerge v15.0.0 ('Duel with the Devil') 64-bit 2018-07-03 04:08:32 / mkvmerge v15.0.0 ('Duel with the Devil') 64-bit 2018-07-03 04:08:32 / UTC 2018-07-02T04:45:08Z
    FromStats_BitRate                        : 640000
    FromStats_Duration                       : 01:30:14.912000000
    FromStats_FrameCount                     : 169216
    FromStats_StreamSize                     : 433192960

    Text #1
    ID                                       : 4
    Format                                   : UTF-8
    Codec ID                                 : S_TEXT/UTF8
    Codec ID/Info                            : UTF-8 Plain Text
    Title                                    : SRT-Forzados
    Language                                 : Spanish
    Default                                  : Yes
    Forced                                   : Yes
    Statistics Tags Issue                    : mkvmerge v15.0.0 ('Duel with the Devil') 64-bit 2018-07-03 04:08:32 / mkvmerge v15.0.0 ('Duel with the Devil') 64-bit 2018-07-03 04:08:32 / UTC 2018-07-02T04:45:08Z
    FromStats_BitRate                        : 4
    FromStats_Duration                       : 01:19:52.663000000
    FromStats_FrameCount                     : 132
    FromStats_StreamSize                     : 2495

    Text #2
    ID                                       : 5
    Format                                   : PGS
    Muxing mode                              : zlib
    Codec ID                                 : S_HDMV/PGS
    Codec ID/Info                            : Picture based subtitle format used on BDs/HD-DVDs
    Language                                 : English
    Default                                  : No
    Forced                                   : No
    Statistics Tags Issue                    : mkvmerge v15.0.0 ('Duel with the Devil') 64-bit 2018-07-03 04:08:32 / mkvmerge v15.0.0 ('Duel with the Devil') 64-bit 2018-07-03 04:08:32 / UTC 2018-07-02T04:45:08Z
    FromStats_BitRate                        : 2139
    FromStats_Duration                       : 01:11:46.302000000
    FromStats_FrameCount                     : 302
    FromStats_StreamSize                     : 1151795

    Text #3
    ID                                       : 6
    Format                                   : PGS
    Muxing mode                              : zlib
    Codec ID                                 : S_HDMV/PGS
    Codec ID/Info                            : Picture based subtitle format used on BDs/HD-DVDs
    Language                                 : Spanish
    Default                                  : No
    Forced                                   : No
    Statistics Tags Issue                    : mkvmerge v15.0.0 ('Duel with the Devil') 64-bit 2018-07-03 04:08:32 / mkvmerge v15.0.0 ('Duel with the Devil') 64-bit 2018-07-03 04:08:32 / UTC 2018-07-02T04:45:08Z
    FromStats_BitRate                        : 2345
    FromStats_Duration                       : 01:19:52.663000000
    FromStats_FrameCount                     : 340
    FromStats_StreamSize                     : 1405307

    Menu
    00:00:00.000                             : :Chapter 1
    00:10:19.160                             : :Chapter 2
    00:14:38.044                             : :Chapter 3
    00:21:52.937                             : :Chapter 4
    00:25:09.717                             : :Chapter 5
    00:31:05.197                             : :Chapter 6
    00:36:23.431                             : :Chapter 7
    00:43:47.333                             : :Chapter 8
    00:47:42.735                             : :Chapter 9
    00:53:48.225                             : :Chapter 10
    01:00:31.461                             : :Chapter 11
    01:05:55.410                             : :Chapter 12
    01:10:57.879                             : :Chapter 13
    01:15:29.150                             : :Chapter 14
    01:23:47.314                             : :Chapter 15

  • Peso: 3.61 GiB

Sinopsis

Evelyn y Lee Abbott son una pareja con tres hijos que vive una granja aislada de toda civilización al norte de Nueva York. Esta familia ha sobrevivido durante meses en un mundo invadido y amenazado por mortales criaturas extraterrestres que se guían por el sonido para cazar. En este contexto en el que una palabra puede significar la muerte, la familia Abbott vive silenciosamente, andan descalzos y se comunican por medio del lenguaje de señas.

Ficha técnica

Video trailer de la película

Enlaces de descarga

Rip de Bluray

Descargar Un lugar en silencio (2018) Full 1080p Latino




Aportes de DPeliculasHDmega la pass es:dpeliculashdmega.org Aportes de CinemaniaHD la pass es:cinemaniahdd.com

Películas relacionadas

  • Paciente Cero (2018) Full 1080p Latino

    2018
    Paciente Cero (2018) Full 1080p Latino

    5.0 1h 26m 2018

    Paciente Cero (2018) Full 1080p Latino; Mega, Google Drive. Tras una pandemia sin precedentes, la Humanidad...

    Director: Stefan Ruzowitzky

    Género: Acción

    Actores: Yumiko Hanasaka

  • Paciente Cero (2018) 1080p Latino

    2018
    Paciente Cero (2018) 1080p Latino

    0.0 1h 26m 2018

    Descargar Paciente Cero (2018) 1080p Latino; Mega, Google Drive. Tras una pandemia sin precedentes, la...

    Director: Stefan Ruzowitzky

    Género: Acción

    Actores: Yumiko Hanasaka

Comentarios 0