True Detective (2015) Segunda Temporada Full 1080p Latino

663 vistas
1 estrella2 estrellas3 estrellas4 estrellas5 estrellas (1 votos, promedio: 5,00 de 5)
Cargando…

Información de True Detective (2015) Segunda Temporada Full 1080p Latino

Datos de la película

  • Calidad: Full 1080p
  • Audio: Español Latino DTS 2.0 BLURAY - Ingles DTS 5.1 BLURAY
  • Subtitulos: Español Latino PGS - Ingles PGS
  • Resolución: 1920x1080p
  • Formato: MKV
  • Codec: H.264
  • Encoder: Dracarys
  • Mediainfo: Clic para Mostrar Datos Ver
  • Format                                   : Matroska
    Format version                           : Version 4 / Version 2
    File size                                : 5.08 GiB
    Duration                                 : 1 h 0 min
    Overall bit rate                         : 12.1 Mb/s
    Movie name                               : CinemaniaHDD.com
    Encoded date                             : UTC 2018-05-02 23:54:00 / UTC 2018-04-27T21:29:55Z
    Writing application                      : mkvmerge v15.0.0 ('Duel with the Devil') 64-bit
    Writing library                          : libebml v1.3.5 + libmatroska v1.4.5 / Lavf57.7.2

    Video
    ID                                       : 1
    Format                                   : AVC
    Format/Info                              : Advanced Video Codec
    Format profile                           : High@L4.1
    Format settings                          : CABAC / 4 Ref Frames
    Format settings, CABAC                   : Yes
    Format settings, RefFrames               : 4 frames
    Codec ID                                 : V_MPEG4/ISO/AVC
    Duration                                 : 1 h 0 min
    Bit rate                                 : 9 555 kb/s
    Width                                    : 1 920 pixels
    Height                                   : 1 080 pixels
    Display aspect ratio                     : 16:9
    Frame rate mode                          : Constant
    Frame rate                               : 23.976 (24000/1001) FPS
    Color space                              : YUV
    Chroma subsampling                       : 4:2:0
    Bit depth                                : 8 bits
    Scan type                                : Progressive
    Bits/(Pixel*Frame)                       : 0.192
    Stream size                              : 4.02 GiB (79%)
    Title                                    : True Detective (2015) S2 Capitulo 4
    Writing library                          : x264 core 148 r2708 86b7198
    Encoding settings                        : cabac=1 / ref=4 / deblock=1:0:0 / analyse=0x3:0x133 / me=esa / subme=9 / psy=1 / psy_rd=1.00:0.00 / mixed_ref=1 / me_range=16 / chroma_me=1 / trellis=2 / 8x8dct=1 / cqm=0 / deadzone=21,11 / fast_pskip=1 / chroma_qp_offset=-2 / threads=34 / lookahead_threads=2 / sliced_threads=0 / nr=0 / decimate=1 / interlaced=0 / bluray_compat=0 / constrained_intra=0 / bframes=3 / b_pyramid=2 / b_adapt=2 / b_bias=0 / direct=3 / weightb=1 / open_gop=0 / weightp=2 / keyint=240 / keyint_min=24 / scenecut=40 / intra_refresh=0 / rc_lookahead=60 / rc=crf / mbtree=1 / crf=20.0 / qcomp=0.60 / qpmin=0 / qpmax=69 / qpstep=4 / vbv_maxrate=62500 / vbv_bufsize=78125 / crf_max=0.0 / nal_hrd=none / filler=0 / ip_ratio=1.40 / aq=1:1.00
    Language                                 : English
    Default                                  : Yes
    Forced                                   : No
    Color range                              : Limited
    Color primaries                          : BT.709
    Transfer characteristics                 : BT.709
    Matrix coefficients                      : BT.709
    Statistics Tags Issue                    : mkvmerge v15.0.0 ('Duel with the Devil') 64-bit 2018-05-02 23:54:00 / mkvmerge v15.0.0 ('Duel with the Devil') 64-bit 2018-05-02 23:54:00 / UTC 2018-04-27T21:29:55Z
    FromStats_BitRate                        : 9771980
    FromStats_Duration                       : 01:00:16.697000000
    FromStats_FrameCount                     : 86714
    FromStats_StreamSize                     : 4417786405

    Audio #1
    ID                                       : 2
    Format                                   : DTS
    Format/Info                              : Digital Theater Systems
    Mode                                     : 16
    Format settings, Endianness              : Big
    Codec ID                                 : A_DTS
    Duration                                 : 1 h 0 min
    Bit rate mode                            : Constant
    Bit rate                                 : 768 kb/s
    Channel(s)                               : 2 channels
    Channel positions                        : Front: L R
    Sampling rate                            : 48.0 kHz
    Frame rate                               : 93.750 FPS (512 SPF)
    Bit depth                                : 24 bits
    Compression mode                         : Lossy
    Stream size                              : 331 MiB (6%)
    Language                                 : Spanish
    Default                                  : Yes
    Forced                                   : No
    Statistics Tags Issue                    : mkvmerge v15.0.0 ('Duel with the Devil') 64-bit 2018-05-02 23:54:00 / mkvmerge v15.0.0 ('Duel with the Devil') 64-bit 2018-05-02 23:54:00 / UTC 2018-04-27T21:29:55Z
    FromStats_BitRate                        : 768000
    FromStats_Duration                       : 01:00:16.736000000
    FromStats_FrameCount                     : 339069
    FromStats_StreamSize                     : 347206656

    Audio #2
    ID                                       : 3
    Format                                   : DTS
    Format/Info                              : Digital Theater Systems
    Mode                                     : 16
    Format settings, Endianness              : Big
    Codec ID                                 : A_DTS
    Duration                                 : 1 h 0 min
    Bit rate mode                            : Constant
    Bit rate                                 : 1 509 kb/s
    Channel(s)                               : 6 channels
    Channel positions                        : Front: L C R, Side: L R, LFE
    Sampling rate                            : 48.0 kHz
    Frame rate                               : 93.750 FPS (512 SPF)
    Bit depth                                : 24 bits
    Compression mode                         : Lossy
    Stream size                              : 651 MiB (12%)
    Language                                 : English
    Default                                  : No
    Forced                                   : No
    Statistics Tags Issue                    : mkvmerge v15.0.0 ('Duel with the Devil') 64-bit 2018-05-02 23:54:00 / mkvmerge v15.0.0 ('Duel with the Devil') 64-bit 2018-05-02 23:54:00 / UTC 2018-04-27T21:29:55Z
    FromStats_BitRate                        : 1509000
    FromStats_Duration                       : 01:00:16.736000000
    FromStats_FrameCount                     : 339069
    FromStats_StreamSize                     : 682206828

    Text #1
    ID                                       : 4
    Format                                   : UTF-8
    Codec ID                                 : S_TEXT/UTF8
    Codec ID/Info                            : UTF-8 Plain Text
    Title                                    : SRT-Latino
    Language                                 : Spanish
    Default                                  : Yes
    Forced                                   : Yes
    Statistics Tags Issue                    : mkvmerge v15.0.0 ('Duel with the Devil') 64-bit 2018-05-02 23:54:00 / mkvmerge v15.0.0 ('Duel with the Devil') 64-bit 2018-05-02 23:54:00 / UTC 2018-04-27T21:29:55Z
    FromStats_BitRate                        : 3
    FromStats_Duration                       : 00:47:36.729000000
    FromStats_FrameCount                     : 42
    FromStats_StreamSize                     : 1162

    Text #2
    ID                                       : 5
    Format                                   : PGS
    Muxing mode                              : zlib
    Codec ID                                 : S_HDMV/PGS
    Codec ID/Info                            : Picture based subtitle format used on BDs/HD-DVDs
    Language                                 : English
    Default                                  : No
    Forced                                   : No
    Statistics Tags Issue                    : mkvmerge v15.0.0 ('Duel with the Devil') 64-bit 2018-05-02 23:54:00 / mkvmerge v15.0.0 ('Duel with the Devil') 64-bit 2018-05-02 23:54:00 / UTC 2018-04-27T21:29:55Z
    FromStats_BitRate                        : 34904
    FromStats_Duration                       : 00:58:34.928000000
    FromStats_FrameCount                     : 1496
    FromStats_StreamSize                     : 15335916

    Text #3
    ID                                       : 6
    Format                                   : PGS
    Muxing mode                              : zlib
    Codec ID                                 : S_HDMV/PGS
    Codec ID/Info                            : Picture based subtitle format used on BDs/HD-DVDs
    Language                                 : Spanish
    Default                                  : No
    Forced                                   : No
    Statistics Tags Issue                    : mkvmerge v15.0.0 ('Duel with the Devil') 64-bit 2018-05-02 23:54:00 / mkvmerge v15.0.0 ('Duel with the Devil') 64-bit 2018-05-02 23:54:00 / UTC 2018-04-27T21:29:55Z
    FromStats_BitRate                        : 33834
    FromStats_Duration                       : 00:56:11.076000000
    FromStats_FrameCount                     : 1378
    FromStats_StreamSize                     : 14257345

    Menu
    00:00:00.000                             : :Chapter 1
    00:01:39.433                             : :Chapter 2
    00:09:54.511                             : :Chapter 3
    00:19:33.130                             : :Chapter 4
    00:27:39.658                             : :Chapter 5
    00:36:00.158                             : :Chapter 6
    00:45:57.213                             : :Chapter 7
    00:52:28.228                             : :Chapter 8
    00:59:08.045                             : :Chapter 9

  • Peso: 5 GiB X Capitulo

Sinopsis

Serie de TV de 8 episodios (2015). Segunda temporada de la popular serie de la HBO creada por Nic Pizzolatto. La trama se ambienta en California y gira en torno a tres policías y un mafioso en una red de conspiraciones que se suceden tras un asesinato. Ray Velcoro (Colin Farrell) es un detective que tendrá que enfrentarse a un dilema: mantener la lealtad a sus jefes, miembros de un departamento de policía corrupto, o ponerse de parte de un mafioso que lo chantajea. Frank Semyon (Vince Vaughn), un veterano criminal, intenta legalizar su empresa, pero su plan se tuerce cuando asesinan a su socio. Paul Woodrugh (Taylor Kitsch), un policía de tráfico apartado de sus tareas, ve en la investigación un modo de redención. Por su parte, Ani Bezzerides (Rachel McAdams), la implacable Sheriff de Monterrey, es una gran profesional, pero demasiado aficionada al juego y a la bebida.

Ficha técnica

Video trailer de la película

Enlaces de descarga

Rip de Bluray

Descargar True Detective (2015) Segunda Temporada Full 1080p Latino




Aportes de DPeliculasHDmega la pass es:dpeliculashdmega.org Aportes de CinemaniaHD la pass es:cinemaniahdd.com
Guardado en : Drama , FULL 1080p Plateadas , Series

Películas relacionadas

  • Lady Bird (2017) Full 1080p Latino

    2017
    Lady Bird (2017) Full 1080p Latino

    5.0 1h 34m 2017

    Sacramento, California, año 2002. Una joven llamada Christine McPherson (Saoirse Ronan), apodada como...

    Director: Jonas Spaccarotelli

    Género: Comedia

    Actores: Tracy Letts

  • Plan de escape (2013) Full 1080p Latino

    2013
    Plan de escape (2013) Full 1080p Latino

    3.0 1h 56m 2013

    El experto en seguridad Ray Breslin prueba sus teorías poco convencionales en diseño de prisiones elaborando...

    Director: Mikael Håfström

    Género: Acción

    Actores: Vinnie Jones

  • El sentido de un final (2017) 1080p Latino

    2017
    El sentido de un final (2017) 1080p Latino

    0.0 1h 48m 2017

    Tony Webster, un hombre jubilado y divorciado, mantiene una tranquila y solitaria vida. Un día descubre...

    Director: Ritesh Batra

    Género: 1080p Portada Negra

    Actores: Timothy Innes

Comentarios 2
  • Altair - 03 mayo, 2018

    gracias

  • Matias - 03 mayo, 2018

    Sos lo mas grande que existe en este mundo loco!!!!!!!!!!!!!!!!!!!!!!!!!!!!!!!!!!!!!!!!!!