Tribunal en fuga (2003) Full 1080p Latino

874 vistas
1 estrella2 estrellas3 estrellas4 estrellas5 estrellas (2 votos, promedio: 5,00 de 5)
Cargando…

Información de Tribunal en fuga (2003) Full 1080p Latino

Datos de la película

  • Calidad: Full 1080p
  • Audio: Español Latino AC3 5.1 BLURAY - Ingles DTS 5.1 BLURAY
  • Subtitulos: Español Latino PGS - Ingles PGS
  • Resolución: 1920x1080p
  • Formato: MKV
  • Codec: H.264
  • Encoder: Dracarys
  • Mediainfo: Clic para Mostrar Datos Ver
  • Format                                   : Matroska
    Format version                           : Version 4 / Version 2
    File size                                : 7.16 GiB
    Duration                                 : 2 h 7 min
    Overall bit rate                         : 8 041 kb/s
    Movie name                               : CinemaniaHDD.net
    Encoded date                             : UTC 2018-05-25 03:09:55 / UTC 2018-05-23T14:36:10Z
    Writing application                      : mkvmerge v15.0.0 ('Duel with the Devil') 64-bit
    Writing library                          : libebml v1.3.5 + libmatroska v1.4.5 / Lavf57.7.2

    Video
    ID                                       : 1
    Format                                   : AVC
    Format/Info                              : Advanced Video Codec
    Format profile                           : High@L4.1
    Format settings                          : CABAC / 4 Ref Frames
    Format settings, CABAC                   : Yes
    Format settings, RefFrames               : 4 frames
    Codec ID                                 : V_MPEG4/ISO/AVC
    Duration                                 : 2 h 7 min
    Bit rate                                 : 5 924 kb/s
    Width                                    : 1 920 pixels
    Height                                   : 1 080 pixels
    Display aspect ratio                     : 16:9
    Frame rate mode                          : Constant
    Frame rate                               : 23.976 (24000/1001) FPS
    Color space                              : YUV
    Chroma subsampling                       : 4:2:0
    Bit depth                                : 8 bits
    Scan type                                : Progressive
    Bits/(Pixel*Frame)                       : 0.119
    Stream size                              : 5.28 GiB (74%)
    Title                                    : Tribunal en fuga (2003) Full 1080p Latino
    Writing library                          : x264 core 148 r2708 86b7198
    Encoding settings                        : cabac=1 / ref=4 / deblock=1:0:0 / analyse=0x3:0x133 / me=esa / subme=9 / psy=1 / psy_rd=1.00:0.00 / mixed_ref=1 / me_range=16 / chroma_me=1 / trellis=2 / 8x8dct=1 / cqm=0 / deadzone=21,11 / fast_pskip=1 / chroma_qp_offset=-2 / threads=34 / lookahead_threads=2 / sliced_threads=0 / nr=0 / decimate=1 / interlaced=0 / bluray_compat=0 / constrained_intra=0 / bframes=3 / b_pyramid=2 / b_adapt=2 / b_bias=0 / direct=3 / weightb=1 / open_gop=0 / weightp=2 / keyint=240 / keyint_min=24 / scenecut=40 / intra_refresh=0 / rc_lookahead=60 / rc=crf / mbtree=1 / crf=20.0 / qcomp=0.60 / qpmin=0 / qpmax=69 / qpstep=4 / vbv_maxrate=62500 / vbv_bufsize=78125 / crf_max=0.0 / nal_hrd=none / filler=0 / ip_ratio=1.40 / aq=1:1.00
    Language                                 : English
    Default                                  : Yes
    Forced                                   : No
    Color range                              : Limited
    Color primaries                          : BT.709
    Transfer characteristics                 : BT.709
    Matrix coefficients                      : BT.709
    Statistics Tags Issue                    : mkvmerge v15.0.0 ('Duel with the Devil') 64-bit 2018-05-25 03:09:55 / mkvmerge v15.0.0 ('Duel with the Devil') 64-bit 2018-05-25 03:09:55 / UTC 2018-05-23T14:36:10Z
    FromStats_BitRate                        : 6055890
    FromStats_Duration                       : 02:07:33.313000000
    FromStats_FrameCount                     : 183496
    FromStats_StreamSize                     : 5793452759

    Audio #1
    ID                                       : 2
    Format                                   : AC-3
    Format/Info                              : Audio Coding 3
    Format settings, Endianness              : Big
    Codec ID                                 : A_AC3
    Duration                                 : 2 h 7 min
    Bit rate mode                            : Constant
    Bit rate                                 : 448 kb/s
    Channel(s)                               : 6 channels
    Channel positions                        : Front: L C R, Side: L R, LFE
    Sampling rate                            : 48.0 kHz
    Frame rate                               : 31.250 FPS (1536 SPF)
    Bit depth                                : 16 bits
    Compression mode                         : Lossy
    Stream size                              : 409 MiB (6%)
    Language                                 : Spanish
    Service kind                             : Complete Main
    Default                                  : Yes
    Forced                                   : No
    Statistics Tags Issue                    : mkvmerge v15.0.0 ('Duel with the Devil') 64-bit 2018-05-25 03:09:55 / mkvmerge v15.0.0 ('Duel with the Devil') 64-bit 2018-05-25 03:09:55 / UTC 2018-05-23T14:36:10Z
    FromStats_BitRate                        : 447499
    FromStats_Duration                       : 02:07:33.344000000
    FromStats_FrameCount                     : 239167
    FromStats_StreamSize                     : 428108800

    Audio #2
    ID                                       : 3
    Format                                   : DTS
    Format/Info                              : Digital Theater Systems
    Mode                                     : 16
    Format settings, Endianness              : Big
    Codec ID                                 : A_DTS
    Duration                                 : 2 h 7 min
    Bit rate mode                            : Constant
    Bit rate                                 : 1 509 kb/s
    Channel(s)                               : 6 channels
    Channel positions                        : Front: L C R, Side: L R, LFE
    Sampling rate                            : 48.0 kHz
    Frame rate                               : 93.750 FPS (512 SPF)
    Bit depth                                : 16 bits
    Compression mode                         : Lossy
    Stream size                              : 1.34 GiB (19%)
    Language                                 : English
    Default                                  : No
    Forced                                   : No
    Statistics Tags Issue                    : mkvmerge v15.0.0 ('Duel with the Devil') 64-bit 2018-05-25 03:09:55 / mkvmerge v15.0.0 ('Duel with the Devil') 64-bit 2018-05-25 03:09:55 / UTC 2018-05-23T14:36:10Z
    FromStats_BitRate                        : 1509500
    FromStats_Duration                       : 02:07:30.784000000
    FromStats_FrameCount                     : 717499
    FromStats_StreamSize                     : 1443607988

    Text #1
    ID                                       : 4
    Format                                   : PGS
    Muxing mode                              : zlib
    Codec ID                                 : S_HDMV/PGS
    Codec ID/Info                            : Picture based subtitle format used on BDs/HD-DVDs
    Language                                 : English
    Default                                  : No
    Forced                                   : No
    Statistics Tags Issue                    : mkvmerge v15.0.0 ('Duel with the Devil') 64-bit 2018-05-25 03:09:55 / mkvmerge v15.0.0 ('Duel with the Devil') 64-bit 2018-05-25 03:09:55 / UTC 2018-05-23T14:36:10Z
    FromStats_BitRate                        : 51863
    FromStats_Duration                       : 02:06:26.621000000
    FromStats_FrameCount                     : 3576
    FromStats_StreamSize                     : 49183548

    Text #2
    ID                                       : 5
    Format                                   : PGS
    Muxing mode                              : zlib
    Codec ID                                 : S_HDMV/PGS
    Codec ID/Info                            : Picture based subtitle format used on BDs/HD-DVDs
    Language                                 : Spanish
    Default                                  : No
    Forced                                   : No
    Statistics Tags Issue                    : mkvmerge v15.0.0 ('Duel with the Devil') 64-bit 2018-05-25 03:09:55 / mkvmerge v15.0.0 ('Duel with the Devil') 64-bit 2018-05-25 03:09:55 / UTC 2018-05-23T14:36:10Z
    FromStats_BitRate                        : 40740
    FromStats_Duration                       : 02:06:26.537000000
    FromStats_FrameCount                     : 3384
    FromStats_StreamSize                     : 38634545

    Menu
    00:00:00.000                             : :Chapter 1
    00:03:21.535                             : :Chapter 2
    00:09:01.958                             : :Chapter 3
    00:11:18.595                             : :Chapter 4
    00:13:46.826                             : :Chapter 5
    00:18:06.752                             : :Chapter 6
    00:24:50.906                             : :Chapter 7
    00:28:55.901                             : :Chapter 8
    00:37:04.055                             : :Chapter 9
    00:39:17.438                             : :Chapter 10
    00:46:40.798                             : :Chapter 11
    00:49:08.112                             : :Chapter 12
    00:54:10.497                             : :Chapter 13
    00:59:14.301                             : :Chapter 14
    01:05:40.019                             : :Chapter 15
    01:15:52.006                             : :Chapter 16
    01:19:28.013                             : :Chapter 17
    01:25:13.442                             : :Chapter 18
    01:30:59.871                             : :Chapter 19
    01:32:16.990                             : :Chapter 20
    01:36:02.882                             : :Chapter 21
    01:43:11.352                             : :Chapter 22
    01:46:48.819                             : :Chapter 23
    01:50:47.224                             : :Chapter 24
    01:55:23.750                             : :Chapter 25
    01:56:19.723                             : :Chapter 26
    01:59:03.386                             : :Chapter 27
    02:03:03.293                             : :Chapter 28

  • Peso: 7.16 GiB

Sinopsis

Cuando una joven viuda interpone en Nueva Orleáns una demanda contra una poderosa empresa de fabricación de armas a la que responsabiliza de la muerte de su marido, comienza un juicio en el que están en juego millones de dólares. Pero se trata de un juicio que casi está ganado de antemano debido a la selección, manipulación e intento de comprar al jurado. Los intereses de la viuda los defiende Wendall Rohr (Dustin Hoffman), un abogado sureño con sólidos principios y un sincero interés por el caso. El abogado que representa a la empresa es, en realidad, el hombre de paja de Rankin Fitch (Gene Hackman), un brillante y despiadado especialista en jurados. En un sofisticado centro de mando situado en un viejo almacén del barrio francés, Fitch y su equipo valoran a los potenciales miembros del jurado. Se trata de conseguir el jurado perfecto para los intereses de la empresa.

Ficha técnica

Video trailer de la película

Enlaces de descarga

Rip de Bluray

Descargar Tribunal en fuga (2003) Full 1080p Latino




Aportes de DPeliculasHDmega la pass es:dpeliculashdmega.org Aportes de CinemaniaHD la pass es:cinemaniahdd.com

Películas relacionadas

Comentarios 0