Tremors A Cold Day in Hell (2018) Full 1080p Latino

1.526 vistas
1 estrella2 estrellas3 estrellas4 estrellas5 estrellas (1 votos, promedio: 5,00 de 5)
Cargando…

Información de Tremors A Cold Day in Hell (2018) Full 1080p Latino

Datos de la película

  • Calidad: Full 1080p
  • Audio: Español Latino DTS 5.1 BLURAY - Ingles DTS 5.1 BLURAY
  • Subtitulos: Español Latino PGS - Ingles PGS
  • Resolución: 1920x1080p
  • Formato: MKV
  • Codec: H.264
  • Encoder: Dracarys
  • Mediainfo: Clic para Mostrar Datos Ver
  • Format                                   : Matroska
    Format version                           : Version 4 / Version 2
    File size                                : 6.10 GiB
    Duration                                 : 1 h 37 min
    Overall bit rate                         : 8 919 kb/s
    Movie name                               : CinemaniaHDD.com
    Encoded date                             : UTC 2018-04-29 02:57:09 / UTC 2018-04-27T04:28:25Z
    Writing application                      : mkvmerge v15.0.0 ('Duel with the Devil') 64-bit
    Writing library                          : libebml v1.3.5 + libmatroska v1.4.5 / Lavf57.7.2

    Video
    ID                                       : 1
    Format                                   : AVC
    Format/Info                              : Advanced Video Codec
    Format profile                           : High@L4.1
    Format settings                          : CABAC / 4 Ref Frames
    Format settings, CABAC                   : Yes
    Format settings, RefFrames               : 4 frames
    Codec ID                                 : V_MPEG4/ISO/AVC
    Duration                                 : 1 h 37 min
    Bit rate                                 : 6 465 kb/s
    Width                                    : 1 920 pixels
    Height                                   : 1 080 pixels
    Display aspect ratio                     : 16:9
    Frame rate mode                          : Constant
    Frame rate                               : 23.976 (24000/1001) FPS
    Color space                              : YUV
    Chroma subsampling                       : 4:2:0
    Bit depth                                : 8 bits
    Scan type                                : Progressive
    Bits/(Pixel*Frame)                       : 0.130
    Stream size                              : 4.42 GiB (72%)
    Title                                    : Tremors A Cold Day in Hell (2018) Full 1080p Latino
    Writing library                          : x264 core 148 r2708 86b7198
    Encoding settings                        : cabac=1 / ref=4 / deblock=1:0:0 / analyse=0x3:0x133 / me=esa / subme=9 / psy=1 / psy_rd=1.00:0.00 / mixed_ref=1 / me_range=16 / chroma_me=1 / trellis=2 / 8x8dct=1 / cqm=0 / deadzone=21,11 / fast_pskip=1 / chroma_qp_offset=-2 / threads=34 / lookahead_threads=2 / sliced_threads=0 / nr=0 / decimate=1 / interlaced=0 / bluray_compat=0 / constrained_intra=0 / bframes=3 / b_pyramid=2 / b_adapt=2 / b_bias=0 / direct=3 / weightb=1 / open_gop=0 / weightp=2 / keyint=240 / keyint_min=24 / scenecut=40 / intra_refresh=0 / rc_lookahead=60 / rc=crf / mbtree=1 / crf=20.0 / qcomp=0.60 / qpmin=0 / qpmax=69 / qpstep=4 / vbv_maxrate=62500 / vbv_bufsize=78125 / crf_max=0.0 / nal_hrd=none / filler=0 / ip_ratio=1.40 / aq=1:1.00
    Language                                 : English
    Default                                  : Yes
    Forced                                   : No
    Color range                              : Limited
    Color primaries                          : BT.709
    Transfer characteristics                 : BT.709
    Matrix coefficients                      : BT.709
    Statistics Tags Issue                    : mkvmerge v15.0.0 ('Duel with the Devil') 64-bit 2018-04-29 02:57:09 / mkvmerge v15.0.0 ('Duel with the Devil') 64-bit 2018-04-29 02:57:09 / UTC 2018-04-27T04:28:25Z
    FromStats_BitRate                        : 6627896
    FromStats_Duration                       : 01:37:58.540000000
    FromStats_FrameCount                     : 140944
    FromStats_StreamSize                     : 4870294693

    Audio #1
    ID                                       : 2
    Format                                   : DTS
    Format/Info                              : Digital Theater Systems
    Mode                                     : 16
    Format settings, Endianness              : Big
    Codec ID                                 : A_DTS
    Duration                                 : 1 h 37 min
    Bit rate mode                            : Constant
    Bit rate                                 : 768 kb/s
    Channel(s)                               : 6 channels
    Channel positions                        : Front: L C R, Side: L R, LFE
    Sampling rate                            : 48.0 kHz
    Frame rate                               : 93.750 FPS (512 SPF)
    Bit depth                                : 24 bits
    Compression mode                         : Lossy
    Stream size                              : 538 MiB (9%)
    Language                                 : Spanish
    Default                                  : Yes
    Forced                                   : No
    Statistics Tags Issue                    : mkvmerge v15.0.0 ('Duel with the Devil') 64-bit 2018-04-29 02:57:09 / mkvmerge v15.0.0 ('Duel with the Devil') 64-bit 2018-04-29 02:57:09 / UTC 2018-04-27T04:28:25Z
    FromStats_BitRate                        : 767999
    FromStats_Duration                       : 01:37:58.539000000
    FromStats_FrameCount                     : 551113
    FromStats_StreamSize                     : 564339712

    Audio #2
    ID                                       : 3
    Format                                   : DTS
    Format/Info                              : Digital Theater Systems
    Mode                                     : 16
    Format settings, Endianness              : Big
    Codec ID                                 : A_DTS
    Duration                                 : 1 h 37 min
    Bit rate mode                            : Constant
    Bit rate                                 : 1 509 kb/s
    Channel(s)                               : 6 channels
    Channel positions                        : Front: L C R, Side: L R, LFE
    Sampling rate                            : 48.0 kHz
    Frame rate                               : 93.750 FPS (512 SPF)
    Bit depth                                : 24 bits
    Compression mode                         : Lossy
    Stream size                              : 1.03 GiB (17%)
    Language                                 : English
    Default                                  : No
    Forced                                   : No
    Statistics Tags Issue                    : mkvmerge v15.0.0 ('Duel with the Devil') 64-bit 2018-04-29 02:57:09 / mkvmerge v15.0.0 ('Duel with the Devil') 64-bit 2018-04-29 02:57:09 / UTC 2018-04-27T04:28:25Z
    FromStats_BitRate                        : 1508999
    FromStats_Duration                       : 01:37:58.539000000
    FromStats_FrameCount                     : 551113
    FromStats_StreamSize                     : 1108839356

    Text #1
    ID                                       : 4
    Format                                   : PGS
    Muxing mode                              : zlib
    Codec ID                                 : S_HDMV/PGS
    Codec ID/Info                            : Picture based subtitle format used on BDs/HD-DVDs
    Language                                 : Spanish
    Default                                  : No
    Forced                                   : No
    Statistics Tags Issue                    : mkvmerge v15.0.0 ('Duel with the Devil') 64-bit 2018-04-29 02:57:09 / mkvmerge v15.0.0 ('Duel with the Devil') 64-bit 2018-04-29 02:57:09 / UTC 2018-04-27T04:28:25Z
    FromStats_BitRate                        : 37342
    FromStats_Duration                       : 01:37:03.442000000
    FromStats_FrameCount                     : 2464
    FromStats_StreamSize                     : 27183065

    Text #2
    ID                                       : 5
    Format                                   : PGS
    Muxing mode                              : zlib
    Codec ID                                 : S_HDMV/PGS
    Codec ID/Info                            : Picture based subtitle format used on BDs/HD-DVDs
    Title                                    : Forzados
    Language                                 : Spanish
    Default                                  : Yes
    Forced                                   : Yes
    Statistics Tags Issue                    : mkvmerge v15.0.0 ('Duel with the Devil') 64-bit 2018-04-29 02:57:09 / mkvmerge v15.0.0 ('Duel with the Devil') 64-bit 2018-04-29 02:57:09 / UTC 2018-04-27T04:28:25Z
    FromStats_BitRate                        : 413
    FromStats_Duration                       : 01:37:03.442000000
    FromStats_FrameCount                     : 20
    FromStats_StreamSize                     : 300973

    Menu
    00:00:00.000                             : :Chapter 1
    00:04:18.383                             : :Chapter 2
    00:10:18.243                             : :Chapter 3
    00:14:55.269                             : :Chapter 4
    00:19:17.907                             : :Chapter 5
    00:24:28.801                             : :Chapter 6
    00:31:32.474                             : :Chapter 7
    00:37:49.559                             : :Chapter 8
    00:40:04.193                             : :Chapter 9
    00:47:55.748                             : :Chapter 10
    00:51:02.017                             : :Chapter 11
    00:56:11.326                             : :Chapter 12
    01:02:27.494                             : :Chapter 13
    01:06:31.571                             : :Chapter 14
    01:11:22.195                             : :Chapter 15
    01:17:28.769                             : :Chapter 16
    01:22:39.705                             : :Chapter 17
    01:26:15.212                             : :Chapter 18
    01:28:33.975                             : :Chapter 19
    01:33:30.688                             : :Chapter 20

  • Peso: 6.10 GiB

Sinopsis

La secuela nos muestra a Burt Gummer y a su hijo Travis en una estación de investiagción remota, donde deberán enfrentarse a los Graboides, que han sido convertidos en armas vivientes.

Ficha técnica

Video trailer de la película

Enlaces de descarga

Rip de Bluray

Descargar Tremors A Cold Day in Hell (2018) Full 1080p Latino




Aportes de DPeliculasHDmega la pass es:dpeliculashdmega.org Aportes de CinemaniaHD la pass es:cinemaniahdd.com

Películas relacionadas

  • Lady Bird (2017) Full 1080p Latino

    2017
    Lady Bird (2017) Full 1080p Latino

    5.0 1h 34m 2017

    Sacramento, California, año 2002. Una joven llamada Christine McPherson (Saoirse Ronan), apodada como...

    Director: Jonas Spaccarotelli

    Género: Comedia

    Actores: Tracy Letts

  • Plan de escape (2013) Full 1080p Latino

    2013
    Plan de escape (2013) Full 1080p Latino

    3.0 1h 56m 2013

    El experto en seguridad Ray Breslin prueba sus teorías poco convencionales en diseño de prisiones elaborando...

    Director: Mikael Håfström

    Género: Acción

    Actores: Vinnie Jones

Comentarios 0