Toy Story 2: Los juguetes vuelven a la carga (1999) Full 1080p Latino

985 vistas
1 estrella2 estrellas3 estrellas4 estrellas5 estrellas (1 votos, promedio: 5,00 de 5)
Cargando…

Información de Toy Story 2: Los juguetes vuelven a la carga (1999) Full 1080p Latino

Datos de la película

  • Calidad: Full 1080p
  • Audio: Español Latino AC3 5.1 BLURAY - Ingles DTS 5.1 BLURAY
  • Subtitulos: Español Latino PGS - Ingles PGS
  • Resolución: 1920X1080
  • Formato: MKV
  • Codec: H.264
  • Encoder: Dpelis
  • Mediainfo: Clic para Mostrar Datos Ver
  • Format                                   : Matroska
    Format version                           : Version 4 / Version 2
    File size                                : 3.99 GiB
    Duration                                 : 1 h 38 min
    Overall bit rate                         : 5 810 kb/s
    Movie name                               : dpeliculashdmega.org
    Encoded date                             : UTC 2017-11-23 06:08:34 / UTC 2017-11-13T22:11:11Z
    Writing application                      : mkvmerge v15.0.0 ('Duel with the Devil') 64-bit
    Writing library                          : libebml v1.3.5 + libmatroska v1.4.5 / Lavf57.7.2

    Video
    ID                                       : 1
    Format                                   : AVC
    Format/Info                              : Advanced Video Codec
    Format profile                           : High@L4.1
    Format settings                          : CABAC / 4 Ref Frames
    Format settings, CABAC                   : Yes
    Format settings, RefFrames               : 4 frames
    Codec ID                                 : V_MPEG4/ISO/AVC
    Duration                                 : 1 h 38 min
    Bit rate                                 : 3 545 kb/s
    Width                                    : 1 920 pixels
    Height                                   : 1 080 pixels
    Display aspect ratio                     : 16:9
    Frame rate mode                          : Constant
    Frame rate                               : 23.976 (24000/1001) FPS
    Color space                              : YUV
    Chroma subsampling                       : 4:2:0
    Bit depth                                : 8 bits
    Scan type                                : Progressive
    Bits/(Pixel*Frame)                       : 0.071
    Stream size                              : 2.43 GiB (61%)
    Title                                    : Toy Story 2: Los juguetes vuelven a la carga (1999) Full 1080p Latino
    Writing library                          : x264 core 148 r2708 86b7198
    Encoding settings                        : cabac=1 / ref=4 / deblock=1:0:0 / analyse=0x3:0x133 / me=esa / subme=10 / psy=1 / psy_rd=1.00:0.00 / mixed_ref=1 / me_range=24 / chroma_me=1 / trellis=2 / 8x8dct=1 / cqm=0 / deadzone=21,11 / fast_pskip=1 / chroma_qp_offset=-2 / threads=34 / lookahead_threads=5 / sliced_threads=0 / nr=0 / decimate=1 / interlaced=0 / bluray_compat=0 / constrained_intra=0 / bframes=8 / b_pyramid=2 / b_adapt=2 / b_bias=0 / direct=3 / weightb=1 / open_gop=0 / weightp=2 / keyint=240 / keyint_min=24 / scenecut=40 / intra_refresh=0 / rc_lookahead=60 / rc=crf / mbtree=1 / crf=20.0 / qcomp=0.60 / qpmin=0 / qpmax=69 / qpstep=4 / vbv_maxrate=62500 / vbv_bufsize=78125 / crf_max=0.0 / nal_hrd=none / filler=0 / ip_ratio=1.40 / aq=1:1.00
    Language                                 : English
    Default                                  : Yes
    Forced                                   : No
    Color range                              : Limited
    Color primaries                          : BT.709
    Transfer characteristics                 : BT.709
    Matrix coefficients                      : BT.709
    Statistics Tags Issue                    : mkvmerge v15.0.0 ('Duel with the Devil') 64-bit 2017-11-23 06:08:34 / mkvmerge v15.0.0 ('Duel with the Devil') 64-bit 2017-11-23 06:08:34 / UTC 2017-11-13T22:11:11Z
    FromStats_BitRate                        : 4000119
    FromStats_Duration                       : 01:32:23.538000000
    FromStats_FrameCount                     : 132912
    FromStats_StreamSize                     : 2771851728

    Audio #1
    ID                                       : 2
    Format                                   : AC-3
    Format/Info                              : Audio Coding 3
    Format settings, Endianness              : Big
    Codec ID                                 : A_AC3
    Duration                                 : 1 h 38 min
    Bit rate mode                            : Constant
    Bit rate                                 : 640 kb/s
    Channel(s)                               : 6 channels
    Channel positions                        : Front: L C R, Side: L R, LFE
    Sampling rate                            : 48.0 kHz
    Frame rate                               : 31.250 FPS (1536 SPF)
    Bit depth                                : 16 bits
    Compression mode                         : Lossy
    Stream size                              : 450 MiB (11%)
    Title                                    : Latino-AC3
    Language                                 : Spanish
    Service kind                             : Complete Main
    Default                                  : Yes
    Forced                                   : No
    Statistics Tags Issue                    : mkvmerge v15.0.0 ('Duel with the Devil') 64-bit 2017-11-23 06:08:34 / mkvmerge v15.0.0 ('Duel with the Devil') 64-bit 2017-11-23 06:08:34 / UTC 2017-11-13T22:11:11Z
    FromStats_BitRate                        : 640000
    FromStats_Duration                       : 01:32:24.704000000
    FromStats_FrameCount                     : 173272
    FromStats_StreamSize                     : 443576320

    Audio #2
    ID                                       : 3
    Format                                   : DTS
    Format/Info                              : Digital Theater Systems
    Format profile                           : ES Matrix / Core
    Mode                                     : 16
    Format settings, Endianness              : Big
    Codec ID                                 : A_DTS
    Duration                                 : 1 h 38 min
    Bit rate mode                            : Constant
    Bit rate                                 : 1 509 kb/s
    Channel(s)                               : 7 channels / 6 channels
    Channel positions                        : Front: L C R, Side: L R, Back: C, LFE / Front: L C R, Side: L R, LFE
    Sampling rate                            : 48.0 kHz
    Frame rate                               : 93.750 FPS (512 SPF)
    Bit depth                                : 24 bits
    Compression mode                         : Lossy
    Stream size                              : 1.04 GiB (26%)
    Title                                    : Ingles-DTS
    Language                                 : English
    Default                                  : No
    Forced                                   : No
    Statistics Tags Issue                    : mkvmerge v15.0.0 ('Duel with the Devil') 64-bit 2017-11-23 06:08:34 / mkvmerge v15.0.0 ('Duel with the Devil') 64-bit 2017-11-23 06:08:34 / UTC 2017-11-13T22:11:11Z
    FromStats_BitRate                        : 1508999
    FromStats_Duration                       : 01:32:23.595000000
    FromStats_FrameCount                     : 519712
    FromStats_StreamSize                     : 1045660544

    Text #1
    ID                                       : 4
    Format                                   : PGS
    Muxing mode                              : zlib
    Codec ID                                 : S_HDMV/PGS
    Codec ID/Info                            : Picture based subtitle format used on BDs/HD-DVDs
    Language                                 : Spanish
    Default                                  : No
    Forced                                   : No
    Statistics Tags Issue                    : mkvmerge v15.0.0 ('Duel with the Devil') 64-bit 2017-11-23 06:08:34 / mkvmerge v15.0.0 ('Duel with the Devil') 64-bit 2017-11-23 06:08:34 / UTC 2017-11-13T22:11:11Z
    FromStats_BitRate                        : 36234
    FromStats_Duration                       : 01:38:14.013000000
    FromStats_FrameCount                     : 2382
    FromStats_StreamSize                     : 26695475

    Text #2
    ID                                       : 5
    Format                                   : PGS
    Muxing mode                              : zlib
    Codec ID                                 : S_HDMV/PGS
    Codec ID/Info                            : Picture based subtitle format used on BDs/HD-DVDs
    Language                                 : English
    Default                                  : No
    Forced                                   : No
    Statistics Tags Issue                    : mkvmerge v15.0.0 ('Duel with the Devil') 64-bit 2017-11-23 06:08:34 / mkvmerge v15.0.0 ('Duel with the Devil') 64-bit 2017-11-23 06:08:34 / UTC 2017-11-13T22:11:11Z
    FromStats_BitRate                        : 46548
    FromStats_Duration                       : 01:37:36.851000000
    FromStats_FrameCount                     : 2906
    FromStats_StreamSize                     : 34078250

    Menu
    00:00:00.000                             : :00:00:00.000
    00:01:23.625                             : :00:01:23.583
    00:04:48.288                             : :00:04:48.288
    00:07:35.789                             : :00:07:35.789
    00:10:40.932                             : :00:10:40.932
    00:11:54.797                             : :00:11:54.797
    00:12:47.100                             : :00:12:47.100
    00:15:29.929                             : :00:15:29.929
    00:18:15.845                             : :00:18:15.845
    00:20:17.675                             : :00:20:17.591
    00:24:14.036                             : :00:24:14.036
    00:25:54.386                             : :00:25:54.386
    00:30:32.122                             : :00:30:32.122
    00:31:48.448                             : :00:31:48.448
    00:32:51.470                             : :00:32:51.469
    00:36:44.994                             : :00:36:44.994
    00:39:09.138                             : :00:39:09.138
    00:39:53.057                             : :00:39:53.057
    00:41:06.339                             : :00:41:06.339
    00:42:26.210                             : :00:42:26.210
    00:44:41.345                             : :00:44:41.345
    00:46:58.607                             : :00:46:58.566
    00:53:23.951                             : :00:53:23.951
    00:56:19.918                             : :00:56:19.918
    01:01:10.041                             : :01:01:10.041
    01:02:14.272                             : :01:02:14.272
    01:04:23.902                             : :01:04:23.902
    01:08:00.410                             : :01:08:00.409
    01:09:52.188                             : :01:09:52.188
    01:12:27.468                             : :01:12:27.468
    01:14:58.494                             : :01:14:58.494
    01:17:28.310                             : :01:17:28.310
    01:19:46.282                             : :01:19:46.281
    01:21:35.808                             : :01:21:35.807
    01:25:48.977                             : :01:25:48.977

     

  • Peso: 3.99 GiB

Sinopsis

Cuando Andy se va de campamento dejando solos a los juguetes, Al McWhiggin, un compulsivo coleccionista de juguetes valiosos, secuestra a Woody. Buzz Lightyear y el resto de los juguetes de Andy deberán actuar con rapidez para rescatarlo, poniéndose al frente de una operación de rescate durante la cual se enfrentarán a múltiples peligros y divertidas situaciones.

Ficha técnica

Video trailer de la película

Enlaces de descarga

Rip de Bluray

Descargar Toy Story 2: Los juguetes vuelven a la carga (1999) Full 1080p Latino




Aportes de DPeliculasHDmega la pass es:dpeliculashdmega.org Aportes de CinemaniaHD la pass es:cinemaniahdd.com

Películas relacionadas

  • Lady Bird (2017) Full 1080p Latino

    2017
    Lady Bird (2017) Full 1080p Latino

    5.0 1h 34m 2017

    Sacramento, California, año 2002. Una joven llamada Christine McPherson (Saoirse Ronan), apodada como...

    Director: Jonas Spaccarotelli

    Género: Comedia

    Actores: Tracy Letts

  • Plan de escape (2013) Full 1080p Latino

    2013
    Plan de escape (2013) Full 1080p Latino

    3.0 1h 56m 2013

    El experto en seguridad Ray Breslin prueba sus teorías poco convencionales en diseño de prisiones elaborando...

    Director: Mikael Håfström

    Género: Acción

    Actores: Vinnie Jones

  • No me las toquen (2018) 1080p Latino

    2018
    No me las toquen (2018) 1080p Latino

    3.0 1h 42m 2018

    Cuando una madre y dos padres descubren que sus respectivas hijas han hecho un pacto para perder la virginidad...

    Director: Kay Cannon

    Género: 1080p Portada Negra

    Actores: T.C. Carter

Comentarios 0