Toy Story (1995) Full 1080p Latino

1.501 vistas
1 estrella2 estrellas3 estrellas4 estrellas5 estrellas (2 votos, promedio: 5,00 de 5)
Cargando…

Información de Toy Story (1995) Full 1080p Latino

Datos de la película

  • Calidad: Full 1080p
  • Audio: Español Latino AC3 5.1 BLURAY - Ingles DTS 5.1 BLURAY
  • Subtitulos: Español Latino PGS - Ingles PGS
  • Resolución: 1920X1080
  • Formato: MKV
  • Codec: H.264
  • Encoder: Dpelis
  • Mediainfo: Clic para Mostrar Datos Ver
  • Format                                   : Matroska
    Format version                           : Version 4 / Version 2
    File size                                : 3.71 GiB
    Duration                                 : 1 h 21 min
    Overall bit rate                         : 6 549 kb/s
    Movie name                               : dpeliculashdmega.org
    Encoded date                             : UTC 2017-11-23 04:57:57 / UTC 2017-11-13T20:29:39Z
    Writing application                      : mkvmerge v15.0.0 ('Duel with the Devil') 64-bit
    Writing library                          : libebml v1.3.5 + libmatroska v1.4.5 / Lavf57.7.2

    Video
    ID                                       : 1
    Format                                   : AVC
    Format/Info                              : Advanced Video Codec
    Format profile                           : High@L4.1
    Format settings                          : CABAC / 4 Ref Frames
    Format settings, CABAC                   : Yes
    Format settings, RefFrames               : 4 frames
    Codec ID                                 : V_MPEG4/ISO/AVC
    Duration                                 : 1 h 21 min
    Bit rate                                 : 4 270 kb/s
    Width                                    : 1 920 pixels
    Height                                   : 1 080 pixels
    Display aspect ratio                     : 16:9
    Frame rate mode                          : Constant
    Frame rate                               : 23.976 (24000/1001) FPS
    Color space                              : YUV
    Chroma subsampling                       : 4:2:0
    Bit depth                                : 8 bits
    Scan type                                : Progressive
    Bits/(Pixel*Frame)                       : 0.086
    Stream size                              : 2.42 GiB (65%)
    Title                                    : Toy Story (1995) Full 1080p Latino
    Writing library                          : x264 core 148 r2708 86b7198
    Encoding settings                        : cabac=1 / ref=4 / deblock=1:0:0 / analyse=0x3:0x133 / me=esa / subme=10 / psy=1 / psy_rd=1.00:0.00 / mixed_ref=1 / me_range=24 / chroma_me=1 / trellis=2 / 8x8dct=1 / cqm=0 / deadzone=21,11 / fast_pskip=1 / chroma_qp_offset=-2 / threads=34 / lookahead_threads=5 / sliced_threads=0 / nr=0 / decimate=1 / interlaced=0 / bluray_compat=0 / constrained_intra=0 / bframes=8 / b_pyramid=2 / b_adapt=2 / b_bias=0 / direct=3 / weightb=1 / open_gop=0 / weightp=2 / keyint=240 / keyint_min=24 / scenecut=40 / intra_refresh=0 / rc_lookahead=60 / rc=crf / mbtree=1 / crf=20.0 / qcomp=0.60 / qpmin=0 / qpmax=69 / qpstep=4 / vbv_maxrate=62500 / vbv_bufsize=78125 / crf_max=0.0 / nal_hrd=none / filler=0 / ip_ratio=1.40 / aq=1:1.00
    Language                                 : English
    Default                                  : Yes
    Forced                                   : No
    Color range                              : Limited
    Color primaries                          : BT.709
    Transfer characteristics                 : BT.709
    Matrix coefficients                      : BT.709
    Statistics Tags Issue                    : mkvmerge v15.0.0 ('Duel with the Devil') 64-bit 2017-11-23 04:57:57 / mkvmerge v15.0.0 ('Duel with the Devil') 64-bit 2017-11-23 04:57:57 / UTC 2017-11-13T20:29:39Z
    FromStats_BitRate                        : 4370338
    FromStats_Duration                       : 01:21:03.401000000
    FromStats_FrameCount                     : 116605
    FromStats_StreamSize                     : 2656838755

    Audio #1
    ID                                       : 2
    Format                                   : AC-3
    Format/Info                              : Audio Coding 3
    Format settings, Endianness              : Big
    Codec ID                                 : A_AC3
    Duration                                 : 1 h 21 min
    Bit rate mode                            : Constant
    Bit rate                                 : 640 kb/s
    Channel(s)                               : 6 channels
    Channel positions                        : Front: L C R, Side: L R, LFE
    Sampling rate                            : 48.0 kHz
    Frame rate                               : 31.250 FPS (1536 SPF)
    Bit depth                                : 16 bits
    Compression mode                         : Lossy
    Stream size                              : 371 MiB (10%)
    Title                                    : Latino-AC3
    Language                                 : Spanish
    Service kind                             : Complete Main
    Default                                  : Yes
    Forced                                   : No
    Statistics Tags Issue                    : mkvmerge v15.0.0 ('Duel with the Devil') 64-bit 2017-11-23 04:57:57 / mkvmerge v15.0.0 ('Duel with the Devil') 64-bit 2017-11-23 04:57:57 / UTC 2017-11-13T20:29:39Z
    FromStats_BitRate                        : 640000
    FromStats_Duration                       : 01:21:04.192000000
    FromStats_FrameCount                     : 152006
    FromStats_StreamSize                     : 389135360

    Audio #2
    ID                                       : 3
    Format                                   : DTS
    Format/Info                              : Digital Theater Systems
    Format profile                           : ES Matrix / Core
    Mode                                     : 16
    Format settings, Endianness              : Big
    Codec ID                                 : A_DTS
    Duration                                 : 1 h 21 min
    Bit rate mode                            : Constant
    Bit rate                                 : 1 509 kb/s
    Channel(s)                               : 7 channels / 6 channels
    Channel positions                        : Front: L C R, Side: L R, Back: C, LFE / Front: L C R, Side: L R, LFE
    Sampling rate                            : 48.0 kHz
    Frame rate                               : 93.750 FPS (512 SPF)
    Bit depth                                : 24 bits
    Compression mode                         : Lossy
    Stream size                              : 875 MiB (23%)
    Title                                    : Ingles-DTS
    Language                                 : English
    Default                                  : No
    Forced                                   : No
    Statistics Tags Issue                    : mkvmerge v15.0.0 ('Duel with the Devil') 64-bit 2017-11-23 04:57:57 / mkvmerge v15.0.0 ('Duel with the Devil') 64-bit 2017-11-23 04:57:57 / UTC 2017-11-13T20:29:39Z
    FromStats_BitRate                        : 1509000
    FromStats_Duration                       : 01:21:03.456000000
    FromStats_FrameCount                     : 455949
    FromStats_StreamSize                     : 917369388

    Text #1
    ID                                       : 4
    Format                                   : PGS
    Muxing mode                              : zlib
    Codec ID                                 : S_HDMV/PGS
    Codec ID/Info                            : Picture based subtitle format used on BDs/HD-DVDs
    Language                                 : Spanish
    Default                                  : No
    Forced                                   : No
    Statistics Tags Issue                    : mkvmerge v15.0.0 ('Duel with the Devil') 64-bit 2017-11-23 04:57:57 / mkvmerge v15.0.0 ('Duel with the Devil') 64-bit 2017-11-23 04:57:57 / UTC 2017-11-13T20:29:39Z
    FromStats_BitRate                        : 39808
    FromStats_Duration                       : 01:19:42.652000000
    FromStats_FrameCount                     : 2100
    FromStats_StreamSize                     : 23798494

    Text #2
    ID                                       : 5
    Format                                   : PGS
    Muxing mode                              : zlib
    Codec ID                                 : S_HDMV/PGS
    Codec ID/Info                            : Picture based subtitle format used on BDs/HD-DVDs
    Language                                 : English
    Default                                  : No
    Forced                                   : No
    Statistics Tags Issue                    : mkvmerge v15.0.0 ('Duel with the Devil') 64-bit 2017-11-23 04:57:57 / mkvmerge v15.0.0 ('Duel with the Devil') 64-bit 2017-11-23 04:57:57 / UTC 2017-11-13T20:29:39Z
    FromStats_BitRate                        : 54231
    FromStats_Duration                       : 01:19:42.319000000
    FromStats_FrameCount                     : 2774
    FromStats_StreamSize                     : 32419103

    Menu
    00:00:00.000                             : :00:00:00.000
    00:02:02.247                             : :00:02:02.247
    00:04:00.365                             : :00:04:00.365
    00:06:34.019                             : :00:06:34.019
    00:09:19.267                             : :00:09:19.267
    00:14:16.981                             : :00:14:16.981
    00:20:10.251                             : :00:20:10.251
    00:22:17.211                             : :00:22:17.211
    00:24:24.964                             : :00:24:24.963
    00:26:01.226                             : :00:26:01.226
    00:29:28.934                             : :00:29:28.934
    00:30:09.349                             : :00:30:09.349
    00:35:09.941                             : :00:35:09.858
    00:39:25.488                             : :00:39:25.405
    00:42:59.535                             : :00:42:59.535
    00:43:43.329                             : :00:43:43.329
    00:46:25.700                             : :00:46:25.699
    00:47:20.171                             : :00:47:20.171
    00:49:08.154                             : :00:49:08.112
    00:51:08.524                             : :00:51:08.524
    00:53:49.935                             : :00:53:49.935
    00:56:23.714                             : :00:56:23.714
    00:57:14.765                             : :00:57:14.765
    01:01:41.072                             : :01:01:41.072
    01:02:50.100                             : :01:02:50.100
    01:04:49.094                             : :01:04:49.093
    01:07:58.658                             : :01:07:58.658
    01:13:10.303                             : :01:13:10.302
    01:15:40.119                             : :01:15:40.077
    01:17:08.415                             : :01:17:08.374

     

  • Peso: 3.71 GiB

Sinopsis

Los juguetes de Andy, un niño de 6 años, temen que haya llegado su hora y que un nuevo regalo de cumpleaños les sustituya en el corazón de su dueño. Woody, un vaquero que ha sido hasta ahora el juguete favorito de Andy, trata de tranquilizarlos hasta que aparece Buzz Lightyear, un héroe espacial dotado de todo tipo de avances tecnológicos. Woody es relegado a un segundo plano. Su constante rivalidad se transformará en una gran amistad cuando ambos se pierden en la ciudad sin saber cómo volver a casa.

Ficha técnica

Video trailer de la película

Enlaces de descarga

Rip de Bluray

Descargar Toy Story (1995) Full 1080p Latino




Aportes de DPeliculasHDmega la pass es:dpeliculashdmega.org Aportes de CinemaniaHD la pass es:cinemaniahdd.com

Películas relacionadas

  • ¡Hombre al agua! (2018) 1080p Latino

    2018
    ¡Hombre al agua! (2018) 1080p Latino

    5.0 1 h 52 min 2018

    Kate es una madre soltera, trabajadora, madre de tres hijas, contratada para limpiar un yate de lujo...

    Director: Rob Greenberg

    Género: 1080p Portada Negra

    Actores: Toby Hargrave

  • El alma de la fiesta (2018) 1080p Latino

    2018
    El alma de la fiesta (2018) 1080p Latino

    0.0 1 h 44 min 2018

    Después de haber sido abandonada por su esposo, Deanna, ama de casa, decide darle un giro a su vida...

    Director: Ben Falcone

    Género: Comedia

    Actores: Yani Simone

  • Tully (2018) 1080p Latino

    2018
    Tully (2018) 1080p Latino

    0.0 1 h 35 min 2018

    La historia de una mujer con tres hijos que, incapaz de lidiar con su bebé recién nacido, contrata...

    Director: Jason Reitman

    Género: Comedia

    Actores: Stormy Ent

  • Si solo pudiera imaginar (2018) Full 1080p Latino

    2018
    Si solo pudiera imaginar (2018) Full 1080p Latino

    4.8 1 h 50 min 2018

    La historia real de la aclamada canción "I Can Only Imagine", la canción cristiana contemporánea más...

    Director: Jon Erwin

    Género: Drama

    Actores: Trace Adkins

  • El padre del año (2018) WEB-DL 1080p Latino

    2018
    El padre del año (2018) WEB-DL 1080p Latino

    0.0 1h 34m 2018

    Dos universitarios recién graduados discuten borrachos sobre quién de sus padres ganaría una pelea....

    Director: Tyler Spindel

    Género: Comedia

    Actores: Ralph Ayala

Comentarios 9
  • SAUL - 09 abril, 2018

    ME MARCA INCORRECTAS LAS CONTRASEÑAS!

    • dpelis - 09 abril, 2018

      cinemaniahdd.net
      debe usar winrar 5.40 full

  • #Cinefilo - 27 enero, 2018

    Descargada, Muchas Gracias

  • etgar garcia - 05 enero, 2018

    suban mas peliculas animadas de pixar, disney

    • Dpelis2 - 05 enero, 2018

      Pronto amigo

      • etgar garcia - 05 enero, 2018

        ok 🙂

  • Jota - 27 noviembre, 2017

    Hola una pregunta:

    Este material es el mismo que estaba en la antigua web creo, que usaron el bluray francés? O está en inglés los títulos y eso?

    • dpelis - 27 noviembre, 2017

      todo lo de aqui es nuevo rips

      • Jota - 27 noviembre, 2017

        Genial!! ^^

        Gracias por su trabajo, vale oro (Y)