Todopoderoso (2003) Full 1080p Latino

1.380 vistas
1 estrella2 estrellas3 estrellas4 estrellas5 estrellas (3 votos, promedio: 5,00 de 5)
Cargando…

Información de Todopoderoso (2003) Full 1080p Latino

Datos de la película

  • Calidad: Full 1080p
  • Audio: Español Latino AC3 5.1 BLURAY - Ingles AC3 5.1 BLURAY
  • Subtitulos: Español Latino PGS - Ingles PGS
  • Resolución: 1920x1080p
  • Formato: MKV
  • Codec: H.264
  • Encoder: Dpelis
  • Mediainfo: Clic para Mostrar Datos Ver
  • Format                                   : Matroska
    Format version                           : Version 4 / Version 2
    File size                                : 5.04 GiB
    Duration                                 : 1 h 41 min
    Overall bit rate                         : 7 141 kb/s
    Movie name                               : dpeliculashdmega.org
    Encoded date                             : UTC 2017-11-27 18:54:43 / UTC 2017-11-27T11:55:18Z
    Writing application                      : mkvmerge v15.0.0 ('Duel with the Devil') 64-bit
    Writing library                          : libebml v1.3.5 + libmatroska v1.4.5 / Lavf57.7.2

    Video
    ID                                       : 1
    Format                                   : AVC
    Format/Info                              : Advanced Video Codec
    Format profile                           : High@L4.1
    Format settings                          : CABAC / 4 Ref Frames
    Format settings, CABAC                   : Yes
    Format settings, RefFrames               : 4 frames
    Codec ID                                 : V_MPEG4/ISO/AVC
    Duration                                 : 1 h 41 min
    Bit rate                                 : 5 719 kb/s
    Width                                    : 1 920 pixels
    Height                                   : 1 080 pixels
    Display aspect ratio                     : 16:9
    Frame rate mode                          : Constant
    Frame rate                               : 23.976 (24000/1001) FPS
    Color space                              : YUV
    Chroma subsampling                       : 4:2:0
    Bit depth                                : 8 bits
    Scan type                                : Progressive
    Bits/(Pixel*Frame)                       : 0.115
    Stream size                              : 4.04 GiB (80%)
    Title                                    : Todopoderoso (2003) Full 1080p Latino
    Writing library                          : x264 core 148 r2708 86b7198
    Encoding settings                        : cabac=1 / ref=4 / deblock=1:0:0 / analyse=0x3:0x133 / me=esa / subme=10 / psy=1 / psy_rd=1.00:0.00 / mixed_ref=1 / me_range=24 / chroma_me=1 / trellis=2 / 8x8dct=1 / cqm=0 / deadzone=21,11 / fast_pskip=1 / chroma_qp_offset=-2 / threads=34 / lookahead_threads=5 / sliced_threads=0 / nr=0 / decimate=1 / interlaced=0 / bluray_compat=0 / constrained_intra=0 / bframes=8 / b_pyramid=2 / b_adapt=2 / b_bias=0 / direct=3 / weightb=1 / open_gop=0 / weightp=2 / keyint=240 / keyint_min=24 / scenecut=40 / intra_refresh=0 / rc_lookahead=60 / rc=crf / mbtree=1 / crf=20.0 / qcomp=0.60 / qpmin=0 / qpmax=69 / qpstep=4 / vbv_maxrate=62500 / vbv_bufsize=78125 / crf_max=0.0 / nal_hrd=none / filler=0 / ip_ratio=1.40 / aq=1:1.00
    Language                                 : English
    Default                                  : Yes
    Forced                                   : No
    Color range                              : Limited
    Color primaries                          : BT.709
    Transfer characteristics                 : BT.709
    Matrix coefficients                      : BT.709
    Statistics Tags Issue                    : mkvmerge v15.0.0 ('Duel with the Devil') 64-bit 2017-11-27 18:54:43 / mkvmerge v15.0.0 ('Duel with the Devil') 64-bit 2017-11-27 18:54:43 / UTC 2017-11-27T11:55:18Z
    FromStats_BitRate                        : 5836370
    FromStats_Duration                       : 01:41:02.181000000
    FromStats_FrameCount                     : 145347
    FromStats_StreamSize                     : 4422641485

    Audio #1
    ID                                       : 2
    Format                                   : AC-3
    Format/Info                              : Audio Coding 3
    Format settings, Endianness              : Big
    Codec ID                                 : A_AC3
    Duration                                 : 1 h 41 min
    Bit rate mode                            : Constant
    Bit rate                                 : 640 kb/s
    Channel(s)                               : 6 channels
    Channel positions                        : Front: L C R, Side: L R, LFE
    Sampling rate                            : 48.0 kHz
    Frame rate                               : 31.250 FPS (1536 SPF)
    Bit depth                                : 16 bits
    Compression mode                         : Lossy
    Stream size                              : 463 MiB (9%)
    Title                                    : Latino-AC3
    Language                                 : Spanish
    Service kind                             : Complete Main
    Default                                  : Yes
    Forced                                   : No
    Statistics Tags Issue                    : mkvmerge v15.0.0 ('Duel with the Devil') 64-bit 2017-11-27 18:54:43 / mkvmerge v15.0.0 ('Duel with the Devil') 64-bit 2017-11-27 18:54:43 / UTC 2017-11-27T11:55:18Z
    FromStats_BitRate                        : 640000
    FromStats_Duration                       : 01:41:02.208000000
    FromStats_FrameCount                     : 189444
    FromStats_StreamSize                     : 484976640

    Audio #2
    ID                                       : 3
    Format                                   : AC-3
    Format/Info                              : Audio Coding 3
    Format settings, Endianness              : Big
    Codec ID                                 : A_AC3
    Duration                                 : 1 h 41 min
    Bit rate mode                            : Constant
    Bit rate                                 : 640 kb/s
    Channel(s)                               : 6 channels
    Channel positions                        : Front: L C R, Side: L R, LFE
    Sampling rate                            : 48.0 kHz
    Frame rate                               : 31.250 FPS (1536 SPF)
    Bit depth                                : 16 bits
    Compression mode                         : Lossy
    Delay relative to video                  : -5 ms
    Stream size                              : 463 MiB (9%)
    Title                                    : Ingles-AC3
    Language                                 : English
    Service kind                             : Complete Main
    Default                                  : No
    Forced                                   : No
    Statistics Tags Issue                    : mkvmerge v15.0.0 ('Duel with the Devil') 64-bit 2017-11-27 18:54:43 / mkvmerge v15.0.0 ('Duel with the Devil') 64-bit 2017-11-27 18:54:43 / UTC 2017-11-27T11:55:18Z
    FromStats_BitRate                        : 640000
    FromStats_Duration                       : 01:41:02.176000000
    FromStats_FrameCount                     : 189443
    FromStats_StreamSize                     : 484974080

    Text #1
    ID                                       : 4
    Format                                   : PGS
    Muxing mode                              : zlib
    Codec ID                                 : S_HDMV/PGS
    Codec ID/Info                            : Picture based subtitle format used on BDs/HD-DVDs
    Language                                 : English
    Default                                  : No
    Forced                                   : No
    Statistics Tags Issue                    : mkvmerge v15.0.0 ('Duel with the Devil') 64-bit 2017-11-27 18:54:43 / mkvmerge v15.0.0 ('Duel with the Devil') 64-bit 2017-11-27 18:54:43 / UTC 2017-11-27T11:55:18Z
    FromStats_BitRate                        : 40679
    FromStats_Duration                       : 01:34:42.018000000
    FromStats_FrameCount                     : 2167
    FromStats_StreamSize                     : 28892848

    Text #2
    ID                                       : 5
    Format                                   : PGS
    Muxing mode                              : zlib
    Codec ID                                 : S_HDMV/PGS
    Codec ID/Info                            : Picture based subtitle format used on BDs/HD-DVDs
    Language                                 : Spanish
    Default                                  : No
    Forced                                   : No
    Statistics Tags Issue                    : mkvmerge v15.0.0 ('Duel with the Devil') 64-bit 2017-11-27 18:54:43 / mkvmerge v15.0.0 ('Duel with the Devil') 64-bit 2017-11-27 18:54:43 / UTC 2017-11-27T11:55:18Z
    FromStats_BitRate                        : 42726
    FromStats_Duration                       : 01:34:39.390000000
    FromStats_FrameCount                     : 2218
    FromStats_StreamSize                     : 30332513

    Menu
    00:00:00.000                             : :Chapter 1
    00:05:46.596                             : :Chapter 2
    00:09:08.256                             : :Chapter 3
    00:13:18.798                             : :Chapter 4
    00:17:22.083                             : :Chapter 5
    00:23:00.921                             : :Chapter 6
    00:25:18.684                             : :Chapter 7
    00:31:40.190                             : :Chapter 8
    00:41:10.969                             : :Chapter 9
    00:47:39.607                             : :Chapter 10
    00:53:03.222                             : :Chapter 11
    00:55:25.489                             : :Chapter 12
    00:57:38.246                             : :Chapter 13
    01:02:43.551                             : :Chapter 14
    01:13:07.300                             : :Chapter 15
    01:19:26.262                             : :Chapter 16
    01:23:41.725                             : :Chapter 17
    01:25:43.597                             : :Chapter 18
    01:29:27.445                             : :Chapter 19
    01:32:38.887                             : :Chapter 20

  • Peso: 5.04 GiB

Sinopsis

Bruce Nolan, reportero de una famosa cadena de televisión de Búfalo, está siempre de mal humor. Sin embargo, no tiene ninguna razón para esta actitud gruñona: es muy respetado en su trabajo y tiene como pareja a una joven muy guapa, Grace, que le quiere y comparte piso con él. Sin embargo, Bruce es incapaz de verle el lado positivo a las cosas.

Luego de un día particularmente malo, Bruce se deja llevar por la rabia y la impotencia y grita y desafía a Dios. Entonces la oreja divina le oye y decide tomar forma humana y bajar a la Tierra para hablar con él y discutir sobre su actitud. Bruce se muestra desafiante ante él, acusándole de tener un trabajo muy fácil, y Dios le propone un peculiar trato al reportero: él le prestar la totalidad de sus poderes divinos durante una semana y entonces ambos verán si Bruce es capaz de hacerlo mejor que él, ya que es tan fácil.

Bruce no duda un segundo y acepta el trato, sin darse cuenta de que, de no lograr ser como Dios de verdad, podría desencadenarse el Apocalipsis…

Ficha técnica

Video trailer de la película

Enlaces de descarga

Rip de Bluray

Descargar Todopoderoso (2003) Full 1080p Latino




Aportes de DPeliculasHDmega la pass es:dpeliculashdmega.org Aportes de CinemaniaHD la pass es:cinemaniahdd.com

Películas relacionadas

  • Lady Bird (2017) Full 1080p Latino

    2017
    Lady Bird (2017) Full 1080p Latino

    5.0 1h 34m 2017

    Sacramento, California, año 2002. Una joven llamada Christine McPherson (Saoirse Ronan), apodada como...

    Director: Jonas Spaccarotelli

    Género: Comedia

    Actores: Tracy Letts

  • Plan de escape (2013) Full 1080p Latino

    2013
    Plan de escape (2013) Full 1080p Latino

    3.0 1h 56m 2013

    El experto en seguridad Ray Breslin prueba sus teorías poco convencionales en diseño de prisiones elaborando...

    Director: Mikael Håfström

    Género: Acción

    Actores: Vinnie Jones

  • No me las toquen (2018) 1080p Latino

    2018
    No me las toquen (2018) 1080p Latino

    3.0 1h 42m 2018

    Cuando una madre y dos padres descubren que sus respectivas hijas han hecho un pacto para perder la virginidad...

    Director: Kay Cannon

    Género: 1080p Portada Negra

    Actores: T.C. Carter

Comentarios 1
  • slash - 20 diciembre, 2017

    Gracias.