Titanes del Pacífico la insurrección (2018) 1080p Latino

3.727 vistas
1 estrella2 estrellas3 estrellas4 estrellas5 estrellas (4 votos, promedio: 2,50 de 5)
Cargando…

Información de Titanes del Pacífico la insurrección (2018) 1080p Latino

Datos de la película

  • Calidad: 1080p
  • Audio: Español Latino AC3 5.1 BLURAY - Ingles AC3 5.1 BLURAY
  • Subtitulos: Español Latino SRT- FORZADOS SRT
  • Resolución: 1920x800p
  • Formato: MKV
  • Codec: H.264
  • Encoder: Dracarys
  • Mediainfo: Clic para Mostrar Datos Ver
  • Format                                   : Matroska
    Format version                           : Version 4 / Version 2
    File size                                : 3.37 GiB
    Duration                                 : 1 h 50 min
    Overall bit rate                         : 4 352 kb/s
    Movie name                               : CinemaniaHDD.net
    Encoded date                             : UTC 2018-06-07 03:02:13 / UTC 2018-06-07T01:24:33Z
    Writing application                      : mkvmerge v15.0.0 ('Duel with the Devil') 64-bit
    Writing library                          : libebml v1.3.5 + libmatroska v1.4.5 / Lavf57.7.2

    Video
    ID                                       : 1
    Format                                   : AVC
    Format/Info                              : Advanced Video Codec
    Format profile                           : High@L4.1
    Format settings                          : CABAC / 5 Ref Frames
    Format settings, CABAC                   : Yes
    Format settings, RefFrames               : 5 frames
    Codec ID                                 : V_MPEG4/ISO/AVC
    Duration                                 : 1 h 50 min
    Bit rate                                 : 3 500 kb/s
    Width                                    : 1 920 pixels
    Height                                   : 800 pixels
    Display aspect ratio                     : 2.40:1
    Frame rate mode                          : Constant
    Frame rate                               : 23.976 (24000/1001) FPS
    Color space                              : YUV
    Chroma subsampling                       : 4:2:0
    Bit depth                                : 8 bits
    Scan type                                : Progressive
    Bits/(Pixel*Frame)                       : 0.095
    Stream size                              : 2.61 GiB (77%)
    Title                                    : Titanes del Pacífico la insurrección (2018) 1080p Latino
    Writing library                          : x264 core 155 r2893 b00bcaf
    Encoding settings                        : cabac=1 / ref=5 / deblock=1:0:0 / analyse=0x3:0x113 / me=hex / subme=8 / psy=1 / psy_rd=1.00:0.00 / mixed_ref=1 / me_range=16 / chroma_me=1 / trellis=2 / 8x8dct=1 / cqm=0 / deadzone=21,11 / fast_pskip=1 / chroma_qp_offset=-2 / threads=25 / lookahead_threads=4 / sliced_threads=0 / nr=0 / decimate=1 / interlaced=0 / bluray_compat=0 / constrained_intra=0 / bframes=3 / b_pyramid=2 / b_adapt=1 / b_bias=0 / direct=3 / weightb=1 / open_gop=0 / weightp=2 / keyint=240 / keyint_min=24 / scenecut=40 / intra_refresh=0 / rc_lookahead=50 / rc=abr / mbtree=1 / bitrate=3500 / ratetol=1.0 / qcomp=0.60 / qpmin=0 / qpmax=69 / qpstep=4 / vbv_maxrate=62500 / vbv_bufsize=78125 / nal_hrd=none / filler=0 / ip_ratio=1.40 / aq=1:1.00
    Language                                 : English
    Default                                  : Yes
    Forced                                   : No
    Color range                              : Limited
    Color primaries                          : BT.709
    Transfer characteristics                 : BT.709
    Matrix coefficients                      : BT.709
    Statistics Tags Issue                    : mkvmerge v15.0.0 ('Duel with the Devil') 64-bit 2018-06-07 03:02:13 / mkvmerge v15.0.0 ('Duel with the Devil') 64-bit 2018-06-07 03:02:13 / UTC 2018-06-07T01:24:33Z
    FromStats_BitRate                        : 3453686
    FromStats_Duration                       : 01:50:42.136000000
    FromStats_FrameCount                     : 159252
    FromStats_StreamSize                     : 2867481736

    Audio #1
    ID                                       : 2
    Format                                   : AC-3
    Format/Info                              : Audio Coding 3
    Format settings, Endianness              : Big
    Codec ID                                 : A_AC3
    Duration                                 : 1 h 50 min
    Bit rate mode                            : Constant
    Bit rate                                 : 448 kb/s
    Channel(s)                               : 6 channels
    Channel positions                        : Front: L C R, Side: L R, LFE
    Sampling rate                            : 48.0 kHz
    Frame rate                               : 31.250 FPS (1536 SPF)
    Bit depth                                : 16 bits
    Compression mode                         : Lossy
    Delay relative to video                  : -5 ms
    Stream size                              : 355 MiB (10%)
    Language                                 : Spanish
    Service kind                             : Complete Main
    Default                                  : Yes
    Forced                                   : No
    Statistics Tags Issue                    : mkvmerge v15.0.0 ('Duel with the Devil') 64-bit 2018-06-07 03:02:13 / mkvmerge v15.0.0 ('Duel with the Devil') 64-bit 2018-06-07 03:02:13 / UTC 2018-06-07T01:24:33Z
    FromStats_BitRate                        : 448000
    FromStats_Duration                       : 01:50:42.208000000
    FromStats_FrameCount                     : 207569
    FromStats_StreamSize                     : 371963648

    Audio #2
    ID                                       : 3
    Format                                   : AC-3
    Format/Info                              : Audio Coding 3
    Format settings, Endianness              : Big
    Codec ID                                 : A_AC3
    Duration                                 : 1 h 50 min
    Bit rate mode                            : Constant
    Bit rate                                 : 448 kb/s
    Channel(s)                               : 6 channels
    Channel positions                        : Front: L C R, Side: L R, LFE
    Sampling rate                            : 48.0 kHz
    Frame rate                               : 31.250 FPS (1536 SPF)
    Bit depth                                : 16 bits
    Compression mode                         : Lossy
    Stream size                              : 355 MiB (10%)
    Language                                 : English
    Service kind                             : Complete Main
    Default                                  : No
    Forced                                   : No
    Statistics Tags Issue                    : mkvmerge v15.0.0 ('Duel with the Devil') 64-bit 2018-06-07 03:02:13 / mkvmerge v15.0.0 ('Duel with the Devil') 64-bit 2018-06-07 03:02:13 / UTC 2018-06-07T01:24:33Z
    FromStats_BitRate                        : 448000
    FromStats_Duration                       : 01:50:42.208000000
    FromStats_FrameCount                     : 207569
    FromStats_StreamSize                     : 371963648

    Text #1
    ID                                       : 4
    Format                                   : UTF-8
    Codec ID                                 : S_TEXT/UTF8
    Codec ID/Info                            : UTF-8 Plain Text
    Title                                    : Forzados
    Language                                 : Spanish
    Default                                  : Yes
    Forced                                   : Yes
    Statistics Tags Issue                    : mkvmerge v15.0.0 ('Duel with the Devil') 64-bit 2018-06-07 03:02:13 / mkvmerge v15.0.0 ('Duel with the Devil') 64-bit 2018-06-07 03:02:13 / UTC 2018-06-07T01:24:33Z
    FromStats_BitRate                        : 2
    FromStats_Duration                       : 01:40:46.820000000
    FromStats_FrameCount                     : 91
    FromStats_StreamSize                     : 2166

    Text #2
    ID                                       : 5
    Format                                   : UTF-8
    Codec ID                                 : S_TEXT/UTF8
    Codec ID/Info                            : UTF-8 Plain Text
    Language                                 : Spanish
    Default                                  : No
    Forced                                   : No
    Statistics Tags Issue                    : mkvmerge v15.0.0 ('Duel with the Devil') 64-bit 2018-06-07 03:02:13 / mkvmerge v15.0.0 ('Duel with the Devil') 64-bit 2018-06-07 03:02:13 / UTC 2018-06-07T01:24:33Z
    FromStats_BitRate                        : 53
    FromStats_Duration                       : 01:41:50.970000000
    FromStats_FrameCount                     : 1438
    FromStats_StreamSize                     : 40635

    Menu
    00:00:00.000                             : :00:00:00.000
    00:06:54.873                             : :00:06:54.873
    00:13:05.368                             : :00:13:05.368
    00:15:51.075                             : :00:15:51.075
    00:20:36.360                             : :00:20:36.360
    00:24:49.697                             : :00:24:49.697
    00:31:08.241                             : :00:31:08.241
    00:37:56.065                             : :00:37:56.065
    00:43:37.949                             : :00:43:37.949
    00:49:01.939                             : :00:49:01.939
    00:53:40.926                             : :00:53:40.926
    00:58:12.030                             : :00:58:12.030
    01:04:45.006                             : :01:04:45.006
    01:09:25.536                             : :01:09:25.536
    01:14:36.722                             : :01:14:36.722
    01:22:53.427                             : :01:22:53.427
    01:29:02.546                             : :01:29:02.546
    01:33:10.585                             : :01:33:10.585
    01:38:07.382                             : :01:38:07.381
    01:40:55.049                             : :01:40:55.049

  • Peso: 3.37 GiB

Sinopsis

El conflicto mundial entre monstruos sobrenaturales y las descomunales máquinas pilotadas por humanos creadas para vencerlos solo era un preludio del ataque a gran escala contra la humanidad de Pacific Rim: Insurrección.

John Boyega encarna al rebelde Jake Pentecost, en su día un prometedor piloto de Jaeger cuyo padre se convirtió en toda una leyenda dando su vida para asegurar la victoria de los humanos contra los brutales “Kaiju”. Desde entonces, Jake ha abandonado su entrenamiento y se ha visto atrapado en el submundo criminal. Pero cuando se desata una amenaza aún más inimaginable cuyo objetivo es doblegar el mundo entero, su hermana Mako Mori (Rinko Kikuchi), líder de una nueva y valiente generación de pilotos que ha crecido a la sombra de la guerra, le brindará la última oportunidad de honrar el legado de su padre. En busca de justicia por los caídos, su única esperanza será unir fuerzas en un enfrentamiento global contra las fuerzas de la extinción.

El excepcional piloto Nate Lambert, rival personal de Jake, y Amara, la jovencísima hacker de Jaeger (Cailee Spaeny), se unen al protagonista como los héroes del Ejército de Defensa Pan-Pacífico. Alzándose para convertirse en la unidad defensiva más poderosa que jamás haya existido sobre la Tierra, pondrán rumbo a una nueva y espectacular aventura.

Ficha técnica

Video trailer de la película

Enlaces de descarga

Rip de Bluray

Descargar Titanes del Pacífico la insurrección (2018) 1080p Latino




Aportes de DPeliculasHDmega la pass es:dpeliculashdmega.org Aportes de CinemaniaHD la pass es:cinemaniahdd.com

Películas relacionadas

  • The lovers (2017) 1080p Latino

    2017
    The lovers (2017) 1080p Latino

    1.0 1h 37m 2017

    Mary y Michael forman un matrimonio de mediana edad que tras años de rutina ambos tienen un amante,...

    Director: Azazel Jacobs

    Género: 1080p Portada Negra

    Actores: Tyler Ross

  • Plan de escape (2013) Full 1080p Latino

    2013
    Plan de escape (2013) Full 1080p Latino

    3.0 1h 56m 2013

    El experto en seguridad Ray Breslin prueba sus teorías poco convencionales en diseño de prisiones elaborando...

    Director: Mikael Håfström

    Género: Acción

    Actores: Vinnie Jones

  • No me las toquen (2018) 1080p Latino

    2018
    No me las toquen (2018) 1080p Latino

    3.0 1h 42m 2018

    Cuando una madre y dos padres descubren que sus respectivas hijas han hecho un pacto para perder la virginidad...

    Director: Kay Cannon

    Género: 1080p Portada Negra

    Actores: T.C. Carter

  • El sentido de un final (2017) 1080p Latino

    2017
    El sentido de un final (2017) 1080p Latino

    0.0 1h 48m 2017

    Tony Webster, un hombre jubilado y divorciado, mantiene una tranquila y solitaria vida. Un día descubre...

    Director: Ritesh Batra

    Género: 1080p Portada Negra

    Actores: Timothy Innes

Comentarios 0