Titanes (2018) Temporada 01 Web-DL 1080p Subtitulado

2.796 vistas
1 estrella2 estrellas3 estrellas4 estrellas5 estrellas (7 votos, promedio: 3,29 de 5)
Cargando…

Información de Titanes (2018) Temporada 01 Web-DL 1080p Subtitulado

Datos de la película

  • Calidad: WEBDL
  • Audio: Se especifica abajo de la Sinopsis
  • Subtitulos: Español Latino SRT - Ingles SRT
  • Resolución: 1920x1080p
  • Formato: MKV
  • Codec: H.264
  • Encoder: NTB
  • Mediainfo: Clic para Mostrar Datos Ver
  • Titans S01E02 (2018) Web-DL 1080p Subtitulado.mkv
    Format                      : Matroska
    Format version              : Version 4 / Version 2
    File size                   : 1.57 GiB
    Duration                    : 43 min 58 s
    Overall bit rate            : 5 108 kb/s
    Movie name                  : CinemaniaHDD.Net
    Encoded date                : UTC 2018-10-20 16:01:02
    Writing application         : mkvmerge v25.0.0 ('Prog Noir') 64-bit
    Writing library             : libebml v1.3.6 + libmatroska v1.4.9

    Video
    ID                          : 1
    Format                      : AVC
    Format/Info                 : Advanced Video Codec
    Format profile              : Baseline@L4
    Format settings             : 4 Ref Frames
    Format settings, CABAC      : No
    Format settings, RefFrames  : 4 frames
    Format settings, GOP        : M=1, N=48
    Codec ID                    : V_MPEG4/ISO/AVC
    Duration                    : 43 min 58 s
    Bit rate                    : 4 977 kb/s
    Width                       : 1 920 pixels
    Height                      : 1 080 pixels
    Display aspect ratio        : 16:9
    Frame rate mode             : Constant
    Frame rate                  : 23.976 (24000/1001) FPS
    Color space                 : YUV
    Chroma subsampling          : 4:2:0
    Bit depth                   : 8 bits
    Scan type                   : Progressive
    Bits/(Pixel*Frame)          : 0.100
    Stream size                 : 1.53 GiB (97%)
    Title                       : HD1080p [Web-DL]
    Writing library             : Zencoder Video Encoding System
    Default                     : Yes
    Forced                      : No
    Color range                 : Limited
    Color primaries             : BT.709
    Transfer characteristics    : BT.709
    Matrix coefficients         : BT.709

    Audio
    ID                          : 2
    Format                      : AAC
    Format/Info                 : Advanced Audio Codec
    Format profile              : LC
    Codec ID                    : A_AAC-2
    Duration                    : 43 min 58 s
    Bit rate                    : 128 kb/s
    Channel(s)                  : 2 channels
    Channel positions           : Front: L R
    Sampling rate               : 48.0 kHz
    Frame rate                  : 46.875 FPS (1024 SPF)
    Compression mode            : Lossy
    Stream size                 : 40.2 MiB (3%)
    Title                       : AAC_2.0_Web-DL_Eng
    Language                    : English
    Default                     : Yes
    Forced                      : No

    Text #1
    ID                          : 3
    Format                      : UTF-8
    Codec ID                    : S_TEXT/UTF8
    Codec ID/Info               : UTF-8 Plain Text
    Duration                    : 41 min 44 s
    Bit rate                    : 40 b/s
    Count of elements           : 453
    Stream size                 : 12.5 KiB (0%)
    Title                       : Sub_Esp
    Language                    : Spanish
    Default                     : Yes
    Forced                      : Yes

    Text #2
    ID                          : 4
    Format                      : UTF-8
    Codec ID                    : S_TEXT/UTF8
    Codec ID/Info               : UTF-8 Plain Text
    Duration                    : 42 min 6 s
    Bit rate                    : 45 b/s
    Count of elements           : 561
    Stream size                 : 14.0 KiB (0%)
    Title                       : Sub_Eng
    Language                    : English
    Default                     : No
    Forced                      : No

  • Peso: 1.57 GiB

Sinopsis

Descargar Titanes (2018) Temporada 01 Web-DL 1080p Subtitulado; Mega, Google Drive. Un equipo de jóvenes superhéroes liderados por Nightwing (anteriormente el primer Robin de Batman) se forma para combatir el mal y otros peligros.

Capitulo 2 Agregado con subtitulos (se actualizará el post conforme salgan)

Audio Ingles AAC 2.0 Web-DL

Ficha técnica

Video trailer de la película

Enlaces de descarga

Rip de Bluray

Descargar Titanes (2018) Temporada 01 Web-DL 1080p Subtitulado




Aportes de DPeliculasHDmega la pass es:dpeliculashdmega.org Aportes de CinemaniaHD la pass es:cinemaniahdd.com

Películas relacionadas

  • Criaturas Nocturnas (2018) 1080p Latino

    2018
    Criaturas Nocturnas (2018) 1080p Latino

    0.0 1h 32m 2018

    Descargar Criaturas Nocturnas (2018) 1080p Latino; Mega, Google Drive. Anna (Bel Powley) es una joven...

    Director: Fritz Böhm

    Género: Fantastico

    Actores: Troy Ruptash

  • The Night Comes For Us (2018) NF 1080p Latino

    2018
    The Night Comes For Us (2018) NF 1080p Latino

    1.0 2h 1m 2018

    The Night Comes For Us (2018) NF 1080p Latino; Mega, Google Drive. Un antiguo sicario debe proteger a...

    Director: Timo Tjahjanto

    Género: Acción

    Actores: Zack Lee

  • Illang: La brigada del lobo (2018) NF 1080p Latino

    2018
    Illang: La brigada del lobo (2018) NF 1080p Latino

    1.0 2h 19m 2018

    Descargar Illang: La brigada del lobo (2018) NF 1080p Latino; Mega, Google Drive. Basada en el anime...

    Director: Kim Jee-woon

    Género: Acción

    Actores: Shin Eun-soo

  • The Padre (2018) WEB-DL 1080p Latino

    2018
    The Padre (2018) WEB-DL 1080p Latino

    3.0 1h 38m 2018

    Descargar The Padre (2018) WEB-DL 1080p Latino; Mega, Google Drive. El juez estadounidense retirado Randall...

    Director: Jonathan Sobol

    Género: Drama

    Actores: Tim Roth

  • Mentes poderosas (2018) 1080p Latino

    2018
    Mentes poderosas (2018) 1080p Latino

    1.0 1h 45m 2018

    Descargar Mentes poderosas (2018) 1080p Latino; Mega, Google Drive. Encarcelados en un mundo adulto...

    Director: Jennifer Yuh Nelson

    Género: Ciencia ficción

    Actores: William Walker

Comentarios 2
  • oscar2030 - 20 octubre, 2018

    Muchas gracias por el capitulo 🙂 Que día se estrena el capitulo 2?

  • José - 19 octubre, 2018

    Para cuando podrian tener el Capitulo 2 y la tercera temporada de Daredevil?