Tiempo de matar (1996) Full 1080p Latino

849 vistas
1 estrella2 estrellas3 estrellas4 estrellas5 estrellas (4 votos, promedio: 3,00 de 5)
Cargando…

Información de Tiempo de matar (1996) Full 1080p Latino

Datos de la película

  • Calidad: Full 1080p
  • Audio: Español Latino AC3 2.0 BLURAY - Ingles AC3 5.1 BLURAY
  • Subtitulos: Español Latino PGS - Ingles PGS
  • Resolución: 1920x1080p
  • Formato: MKV
  • Codec: H.264
  • Encoder: Dracarys
  • Mediainfo: Clic para Mostrar Datos Ver
  • Format                                   : Matroska
    Format version                           : Version 4 / Version 2
    File size                                : 6.21 GiB
    Duration                                 : 2 h 29 min
    Overall bit rate                         : 5 950 kb/s
    Movie name                               : CinemaniaHDD.net
    Encoded date                             : UTC 2018-09-23 00:51:21 / UTC 2018-09-19T18:14:01Z
    Writing application                      : mkvmerge v15.0.0 ('Duel with the Devil') 64-bit
    Writing library                          : libebml v1.3.5 + libmatroska v1.4.5 / Lavf57.7.2

    Video
    ID                                       : 1
    Format                                   : AVC
    Format/Info                              : Advanced Video Codec
    Format profile                           : High@L4.1
    Format settings                          : CABAC / 4 Ref Frames
    Format settings, CABAC                   : Yes
    Format settings, RefFrames               : 4 frames
    Codec ID                                 : V_MPEG4/ISO/AVC
    Duration                                 : 2 h 29 min
    Bit rate                                 : 5 000 kb/s
    Width                                    : 1 920 pixels
    Height                                   : 1 080 pixels
    Display aspect ratio                     : 16:9
    Frame rate mode                          : Constant
    Frame rate                               : 23.976 (24000/1001) FPS
    Color space                              : YUV
    Chroma subsampling                       : 4:2:0
    Bit depth                                : 8 bits
    Scan type                                : Progressive
    Bits/(Pixel*Frame)                       : 0.101
    Stream size                              : 5.22 GiB (84%)
    Writing library                          : x264 core 148 r2708 86b7198
    Encoding settings                        : cabac=1 / ref=4 / deblock=1:0:0 / analyse=0x3:0x133 / me=esa / subme=10 / psy=1 / psy_rd=1.00:0.00 / mixed_ref=1 / me_range=24 / chroma_me=1 / trellis=2 / 8x8dct=1 / cqm=0 / deadzone=21,11 / fast_pskip=1 / chroma_qp_offset=-2 / threads=34 / lookahead_threads=5 / sliced_threads=0 / nr=0 / decimate=1 / interlaced=0 / bluray_compat=0 / constrained_intra=0 / bframes=8 / b_pyramid=2 / b_adapt=2 / b_bias=0 / direct=3 / weightb=1 / open_gop=0 / weightp=2 / keyint=240 / keyint_min=24 / scenecut=40 / intra_refresh=0 / rc_lookahead=60 / rc=crf / mbtree=1 / crf=20.0 / qcomp=0.60 / qpmin=0 / qpmax=69 / qpstep=4 / vbv_maxrate=62500 / vbv_bufsize=78125 / crf_max=0.0 / nal_hrd=none / filler=0 / ip_ratio=1.40 / aq=1:1.00
    Language                                 : English
    Default                                  : Yes
    Forced                                   : No
    Color range                              : Limited
    Color primaries                          : BT.709
    Transfer characteristics                 : BT.709
    Matrix coefficients                      : BT.709
    Statistics Tags Issue                    : mkvmerge v15.0.0 ('Duel with the Devil') 64-bit 2018-09-23 00:51:21 / mkvmerge v15.0.0 ('Duel with the Devil') 64-bit 2018-09-23 00:51:21 / UTC 2018-09-19T18:14:01Z
    FromStats_BitRate                        : 5083083
    FromStats_Duration                       : 02:29:29.836000000
    FromStats_FrameCount                     : 215061
    FromStats_StreamSize                     : 5699303640

    Audio #1
    ID                                       : 2
    Format                                   : AC-3
    Format/Info                              : Audio Coding 3
    Mode                                     : Dolby Digital
    Format settings, Endianness              : Big
    Codec ID                                 : A_AC3
    Duration                                 : 2 h 29 min
    Bit rate mode                            : Constant
    Bit rate                                 : 192 kb/s
    Channel(s)                               : 2 channels
    Channel positions                        : Front: L R
    Sampling rate                            : 48.0 kHz
    Frame rate                               : 31.250 FPS (1536 SPF)
    Bit depth                                : 16 bits
    Compression mode                         : Lossy
    Stream size                              : 205 MiB (3%)
    Language                                 : Spanish
    Service kind                             : Complete Main
    Default                                  : Yes
    Forced                                   : No
    Statistics Tags Issue                    : mkvmerge v15.0.0 ('Duel with the Devil') 64-bit 2018-09-23 00:51:21 / mkvmerge v15.0.0 ('Duel with the Devil') 64-bit 2018-09-23 00:51:21 / UTC 2018-09-19T18:14:01Z
    FromStats_BitRate                        : 192000
    FromStats_Duration                       : 02:29:29.856000000
    FromStats_FrameCount                     : 280308
    FromStats_StreamSize                     : 215276544

    Audio #2
    ID                                       : 3
    Format                                   : AC-3
    Format/Info                              : Audio Coding 3
    Format settings, Endianness              : Big
    Codec ID                                 : A_AC3
    Duration                                 : 2 h 29 min
    Bit rate mode                            : Constant
    Bit rate                                 : 640 kb/s
    Channel(s)                               : 6 channels
    Channel positions                        : Front: L C R, Side: L R, LFE
    Sampling rate                            : 48.0 kHz
    Frame rate                               : 31.250 FPS (1536 SPF)
    Bit depth                                : 16 bits
    Compression mode                         : Lossy
    Stream size                              : 684 MiB (11%)
    Language                                 : English
    Service kind                             : Complete Main
    Default                                  : No
    Forced                                   : No
    Statistics Tags Issue                    : mkvmerge v15.0.0 ('Duel with the Devil') 64-bit 2018-09-23 00:51:21 / mkvmerge v15.0.0 ('Duel with the Devil') 64-bit 2018-09-23 00:51:21 / UTC 2018-09-19T18:14:01Z
    FromStats_BitRate                        : 640000
    FromStats_Duration                       : 02:29:29.856000000
    FromStats_FrameCount                     : 280308
    FromStats_StreamSize                     : 717588480

    Text #1
    ID                                       : 4
    Format                                   : PGS
    Muxing mode                              : zlib
    Codec ID                                 : S_HDMV/PGS
    Codec ID/Info                            : Picture based subtitle format used on BDs/HD-DVDs
    Language                                 : English
    Default                                  : No
    Forced                                   : No
    Statistics Tags Issue                    : mkvmerge v15.0.0 ('Duel with the Devil') 64-bit 2018-09-23 00:51:21 / mkvmerge v15.0.0 ('Duel with the Devil') 64-bit 2018-09-23 00:51:21 / UTC 2018-09-19T18:14:01Z
    FromStats_BitRate                        : 40659
    FromStats_Duration                       : 02:28:07.378000000
    FromStats_FrameCount                     : 4178
    FromStats_StreamSize                     : 45169979

    Text #2
    ID                                       : 5
    Format                                   : PGS
    Muxing mode                              : zlib
    Codec ID                                 : S_HDMV/PGS
    Codec ID/Info                            : Picture based subtitle format used on BDs/HD-DVDs
    Language                                 : Spanish
    Default                                  : No
    Forced                                   : No
    Statistics Tags Issue                    : mkvmerge v15.0.0 ('Duel with the Devil') 64-bit 2018-09-23 00:51:21 / mkvmerge v15.0.0 ('Duel with the Devil') 64-bit 2018-09-23 00:51:21 / UTC 2018-09-19T18:14:01Z
    FromStats_BitRate                        : 35019
    FromStats_Duration                       : 02:28:28.900000000
    FromStats_FrameCount                     : 4017
    FromStats_StreamSize                     : 38998005

    Menu
    00:00:00.000                             : :Chapter 1
    00:03:35.132                             : :Chapter 2
    00:09:15.555                             : :Chapter 3
    00:15:17.333                             : :Chapter 4
    00:19:47.520                             : :Chapter 5
    00:25:29.862                             : :Chapter 6
    00:27:13.924                             : :Chapter 7
    00:29:12.584                             : :Chapter 8
    00:31:45.987                             : :Chapter 9
    00:36:45.161                             : :Chapter 10
    00:37:39.549                             : :Chapter 11
    00:40:30.470                             : :Chapter 12
    00:42:48.524                             : :Chapter 13
    00:45:32.521                             : :Chapter 14
    00:48:48.384                             : :Chapter 15
    00:50:47.002                             : :Chapter 16
    00:52:55.631                             : :Chapter 17
    01:00:28.083                             : :Chapter 18
    01:01:03.076                             : :Chapter 19
    01:03:51.745                             : :Chapter 20
    01:05:55.118                             : :Chapter 21
    01:07:13.112                             : :Chapter 22
    01:11:23.237                             : :Chapter 23
    01:15:55.760                             : :Chapter 24
    01:18:18.861                             : :Chapter 25
    01:23:24.374                             : :Chapter 26
    01:25:46.141                             : :Chapter 27
    01:27:39.421                             : :Chapter 28
    01:31:15.553                             : :Chapter 29
    01:35:33.728                             : :Chapter 30
    01:37:12.577                             : :Chapter 31
    01:38:43.668                             : :Chapter 32
    01:39:51.569                             : :Chapter 33
    01:44:13.789                             : :Chapter 34
    01:49:01.368                             : :Chapter 35
    01:54:42.459                             : :Chapter 36
    01:58:42.574                             : :Chapter 37
    02:00:17.252                             : :Chapter 38
    02:02:38.268                             : :Chapter 39
    02:06:20.406                             : :Chapter 40
    02:08:31.454                             : :Chapter 41
    02:11:45.231                             : :Chapter 42
    02:13:19.158                             : :Chapter 43
    02:21:05.332                             : :Chapter 44
    02:23:01.448                             : :Chapter 45
    02:25:16.499                             : :Chapter 46

  • Peso: 6.21 GiB

Sinopsis

En una tranquila localidad sureña de Mississippi dos jóvenes borrachos violan salvajemente a una niña negra de diez años. La mayoría blanca de la ciudad se muestra horrorizada ante tan atroz crimen. Carl Lee, el padre de la niña, armado con un rifle de asalto, decide tomarse la justicia por su mano y mata a los violadores de su hija. Mientras la tensión va creciendo y reaparecen en las calles las cruces ardiendo del Ku Klux Klan, Jake Brigance, un joven abogado blanco, hará todo lo posible por salvar la vida de Carl Lee y proteger la suya.

Ficha técnica

Video trailer de la película

Enlaces de descarga

Rip de Bluray

Descargar Tiempo de matar (1996) Full 1080p Latino




Aportes de DPeliculasHDmega la pass es:dpeliculashdmega.org Aportes de CinemaniaHD la pass es:cinemaniahdd.com

Películas relacionadas

  • The Night Comes For Us (2018) NF 1080p Latino

    2018
    The Night Comes For Us (2018) NF 1080p Latino

    1.0 2h 1m 2018

    The Night Comes For Us (2018) NF 1080p Latino; Mega, Google Drive. Un antiguo sicario debe proteger a...

    Director: Timo Tjahjanto

    Género: Acción

    Actores: Zack Lee

  • Illang: La brigada del lobo (2018) NF 1080p Latino

    2018
    Illang: La brigada del lobo (2018) NF 1080p Latino

    1.0 2h 19m 2018

    Descargar Illang: La brigada del lobo (2018) NF 1080p Latino; Mega, Google Drive. Basada en el anime...

    Director: Kim Jee-woon

    Género: Acción

    Actores: Shin Eun-soo

  • The Padre (2018) WEB-DL 1080p Latino

    2018
    The Padre (2018) WEB-DL 1080p Latino

    3.0 1h 38m 2018

    Descargar The Padre (2018) WEB-DL 1080p Latino; Mega, Google Drive. El juez estadounidense retirado Randall...

    Director: Jonathan Sobol

    Género: Drama

    Actores: Tim Roth

  • Mentes poderosas (2018) 1080p Latino

    2018
    Mentes poderosas (2018) 1080p Latino

    1.0 1h 45m 2018

    Descargar Mentes poderosas (2018) 1080p Latino; Mega, Google Drive. Encarcelados en un mundo adulto...

    Director: Jennifer Yuh Nelson

    Género: Ciencia ficción

    Actores: William Walker

Comentarios 0