Thoroughbreds (2017) WEB-DL 1080p Latino

502 vistas
1 estrella2 estrellas3 estrellas4 estrellas5 estrellas (Ninguna valoración todavía)
Cargando…

Información de Thoroughbreds (2017) WEB-DL 1080p Latino

Datos de la película

  • Calidad: WEBDL
  • Audio: Español Latino AC3 2.0 iTunes - Ingles AC3 5.1 iTunes
  • Subtitulos: Español Latino SRT- FORZADOS SRT
  • Resolución: 1916x800p
  • Formato: MKV
  • Codec: H.264
  • Encoder: Dracarys
  • Mediainfo: Clic para Mostrar Datos Ver
  • Format                                   : Matroska
    Format version                           : Version 4 / Version 2
    File size                                : 3.34 GiB
    Duration                                 : 1 h 32 min
    Overall bit rate                         : 5 191 kb/s
    Movie name                               : CinemaniaHDD.net
    Encoded date                             : UTC 2018-05-22 19:32:10
    Writing application                      : mkvmerge v15.0.0 ('Duel with the Devil') 64-bit
    Writing library                          : libebml v1.3.5 + libmatroska v1.4.5

    Video
    ID                                       : 1
    Format                                   : AVC
    Format/Info                              : Advanced Video Codec
    Format profile                           : High@L4
    Format settings                          : CABAC / 5 Ref Frames
    Format settings, CABAC                   : Yes
    Format settings, RefFrames               : 5 frames
    Codec ID                                 : V_MPEG4/ISO/AVC
    Duration                                 : 1 h 32 min
    Bit rate                                 : 4 549 kb/s
    Width                                    : 1 916 pixels
    Height                                   : 800 pixels
    Display aspect ratio                     : 2.40:1
    Frame rate mode                          : Constant
    Frame rate                               : 23.976 (23976/1000) FPS
    Color space                              : YUV
    Chroma subsampling                       : 4:2:0
    Bit depth                                : 8 bits
    Scan type                                : Progressive
    Bits/(Pixel*Frame)                       : 0.124
    Stream size                              : 2.93 GiB (88%)
    Title                                    : Thoroughbreds (2017) WEB-DL 1080p Latino
    Language                                 : English
    Default                                  : Yes
    Forced                                   : No
    Color range                              : Limited
    Color primaries                          : BT.709
    Transfer characteristics                 : BT.709
    Matrix coefficients                      : BT.709

    Audio #1
    ID                                       : 2
    Format                                   : AC-3
    Format/Info                              : Audio Coding 3
    Format settings, Endianness              : Big
    Codec ID                                 : A_AC3
    Duration                                 : 1 h 32 min
    Bit rate mode                            : Constant
    Bit rate                                 : 256 kb/s
    Channel(s)                               : 2 channels
    Channel positions                        : Front: L R
    Sampling rate                            : 48.0 kHz
    Frame rate                               : 31.250 FPS (1536 SPF)
    Bit depth                                : 16 bits
    Compression mode                         : Lossy
    Delay relative to video                  : -42 ms
    Stream size                              : 169 MiB (5%)
    Language                                 : Spanish
    Service kind                             : Complete Main
    Default                                  : Yes
    Forced                                   : No

    Audio #2
    ID                                       : 3
    Format                                   : AC-3
    Format/Info                              : Audio Coding 3
    Format settings, Endianness              : Big
    Codec ID                                 : A_AC3
    Duration                                 : 1 h 32 min
    Bit rate mode                            : Constant
    Bit rate                                 : 384 kb/s
    Channel(s)                               : 6 channels
    Channel positions                        : Front: L C R, Side: L R, LFE
    Sampling rate                            : 48.0 kHz
    Frame rate                               : 31.250 FPS (1536 SPF)
    Bit depth                                : 16 bits
    Compression mode                         : Lossy
    Delay relative to video                  : -42 ms
    Stream size                              : 253 MiB (7%)
    Language                                 : English
    Service kind                             : Complete Main
    Default                                  : No
    Forced                                   : No

    Text #1
    ID                                       : 4
    Format                                   : UTF-8
    Codec ID                                 : S_TEXT/UTF8
    Codec ID/Info                            : UTF-8 Plain Text
    Duration                                 : 1 h 1 min
    Bit rate                                 : 0 b/s
    Count of elements                        : 10
    Stream size                              : 336 Bytes (0%)
    Title                                    : Forzados
    Language                                 : Spanish
    Default                                  : Yes
    Forced                                   : Yes

    Text #2
    ID                                       : 5
    Format                                   : UTF-8
    Codec ID                                 : S_TEXT/UTF8
    Codec ID/Info                            : UTF-8 Plain Text
    Duration                                 : 1 h 23 min
    Bit rate                                 : 44 b/s
    Count of elements                        : 883
    Stream size                              : 27.1 KiB (0%)
    Language                                 : Spanish
    Default                                  : No
    Forced                                   : No

    Menu
    00:00:00.000                             : en:1
    00:05:35.126                             : en:2
    00:10:23.789                             : en:3
    00:16:02.335                             : en:4
    00:21:40.548                             : en:5
    00:24:59.121                             : en:6
    00:27:05.914                             : en:7
    00:29:57.585                             : en:8
    00:34:06.792                             : en:9
    00:39:17.269                             : en:10
    00:44:34.669                             : en:11
    00:49:00.726                             : en:12
    00:52:29.226                             : en:13
    00:58:51.358                             : en:14
    01:01:31.226                             : en:15
    01:05:49.442                             : en:16
    01:11:21.899                             : en:17
    01:17:57.836                             : en:18
    01:21:47.941                             : en:19
    01:26:37.146                             : en:20

  • Peso: 3.34 GiB

Sinopsis

Dos chicas adolescentes de Connecticut reavivan su amistad después de años separadas. En el proceso, aprenden que no todo es lo que parece y que un asesinato solucionaría sus problemas.

Ficha técnica

  • Titulo original: Thoroughbreds
  • Fecha de lanzamiento: 09-03-2018 (United States of America)
  • Director: Cory Finley
  • Género: Drama, Suspense
  • Puntuación: 0.0 0 votos
  • Duración:
    1 h 32 min

Video trailer de la película

Enlaces de descarga

Rip de Bluray

Descargar Thoroughbreds (2017) WEB-DL 1080p Latino




Aportes de DPeliculasHDmega la pass es:dpeliculashdmega.org Aportes de CinemaniaHD la pass es:cinemaniahdd.com
Guardado en : Drama , Suspense

Películas relacionadas

Comentarios 0