Thor: Ragnarok (2017) WEBDL 1080p Subtitulada

12.442 vistas
1 estrella2 estrellas3 estrellas4 estrellas5 estrellas (4 votos, promedio: 3,00 de 5)
Cargando…

Información de Thor: Ragnarok (2017) WEBDL 1080p Subtitulada

Datos de la película

  • Calidad: WEBDL
  • Audio: Ingles AC3 5.1 iTunes
  • Subtitulos: Español Latino SRT
  • Resolución: 1920X800p
  • Formato: MKV
  • Codec: H.264
  • Encoder: EVO
  • Mediainfo: Clic para Mostrar Datos Ver
  • Format                                   : Matroska
    Format version                           : Version 4 / Version 2
    File size                                : 5.16 GiB
    Duration                                 : 2 h 10 min
    Overall bit rate                         : 5 647 kb/s
    Movie name                               : CinemaniaHDD.com
    Encoded date                             : UTC 2018-01-21 02:12:09
    Writing application                      : mkvmerge v15.0.0 ('Duel with the Devil') 64-bit
    Writing library                          : libebml v1.3.5 + libmatroska v1.4.5

    Video
    ID                                       : 1
    Format                                   : AVC
    Format/Info                              : Advanced Video Codec
    Format profile                           : High@L4.1
    Format settings                          : CABAC / 4 Ref Frames
    Format settings, CABAC                   : Yes
    Format settings, RefFrames               : 4 frames
    Format settings, GOP                     : M=1, N=3
    Codec ID                                 : V_MPEG4/ISO/AVC
    Duration                                 : 2 h 10 min
    Bit rate                                 : 5 261 kb/s
    Width                                    : 1 920 pixels
    Height                                   : 800 pixels
    Display aspect ratio                     : 2.40:1
    Frame rate mode                          : Constant
    Frame rate                               : 23.976 (24000/1001) FPS
    Color space                              : YUV
    Chroma subsampling                       : 4:2:0
    Bit depth                                : 8 bits
    Scan type                                : Progressive
    Bits/(Pixel*Frame)                       : 0.143
    Stream size                              : 4.80 GiB (93%)
    Title                                    : Thor: Ragnarok (2017) WEBDL 1080p Subtitulada
    Language                                 : English
    Default                                  : Yes
    Forced                                   : No
    Color range                              : Limited
    Color primaries                          : BT.709
    Transfer characteristics                 : BT.709
    Matrix coefficients                      : BT.709

    Audio
    ID                                       : 2
    Format                                   : AC-3
    Format/Info                              : Audio Coding 3
    Format settings, Endianness              : Big
    Codec ID                                 : A_AC3
    Duration                                 : 2 h 10 min
    Bit rate mode                            : Constant
    Bit rate                                 : 384 kb/s
    Channel(s)                               : 6 channels
    Channel positions                        : Front: L C R, Side: L R, LFE
    Sampling rate                            : 48.0 kHz
    Frame rate                               : 31.250 FPS (1536 SPF)
    Bit depth                                : 16 bits
    Compression mode                         : Lossy
    Stream size                              : 359 MiB (7%)
    Language                                 : English
    Service kind                             : Complete Main
    Default                                  : Yes
    Forced                                   : No

    Text
    ID                                       : 3
    Format                                   : UTF-8
    Codec ID                                 : S_TEXT/UTF8
    Codec ID/Info                            : UTF-8 Plain Text
    Duration                                 : 2 h 9 min
    Bit rate                                 : 50 b/s
    Count of elements                        : 1558
    Stream size                              : 47.8 KiB (0%)
    Default                                  : Yes
    Forced                                   : No

    Menu
    00:00:00.000                             : en:The Great Prophecy
    00:06:20.000                             : en:The Tragedy Of Loki Of Asgard
    00:14:11.000                             : en:A Worthy Inclusion
    00:22:12.000                             : en:The Goddess Of Death
    00:26:39.000                             : en:"Are You A Fighter, Or Are You Food?"
    00:31:29.000                             : en:Heiress Apparent
    00:35:03.000                             : en:The Grandmaster
    00:42:49.000                             : en:The Eternal Flame
    00:48:30.000                             : en:The Contest Of Champions
    00:59:38.000                             : en:The Resistance
    01:07:58.000                             : en:Hotheaded Fools
    01:17:30.000                             : en:The Revengers
    01:27:25.000                             : en:"The Revolution Has Begun"
    01:36:08.000                             : en:Ready For War
    01:42:35.000                             : en:"Asgard Is Not A Place"
    01:49:20.000                             : en:"What Were You The God Of Again?"
    01:54:57.000                             : en:Ragnarok
    02:00:37.000                             : en:End Credits

     

  • Peso: 5.16 GiB

Sinopsis

En Thor: Ragnarok, de Marvel Studios, Thor se encuentra atrapado en el otro extremo del universo sin su poderoso martillo. Envuelto en una carrera contra el tiempo, deberá regresar a Asgard y detener el Ragnarok — la destrucción de su planeta y el fin de la civilización asgardiana — en manos de una nueva amenaza todopoderosa: la despiadada Hela. Pero, antes, debe sobrevivir a una mortal competencia de gladiadores que lo enfrentará a su antiguo aliado y compañero Vengador… ¡el increíble Hulk!

Ficha técnica

Video trailer de la película

Enlaces de descarga

Rip de Bluray

Descargar Thor: Ragnarok (2017) WEBDL 1080p Subtitulada




Aportes de DPeliculasHDmega la pass es:dpeliculashdmega.org Aportes de CinemaniaHD la pass es:cinemaniahdd.com

Películas relacionadas

  • El alma de la fiesta (2018) 1080p Latino

    2018
    El alma de la fiesta (2018) 1080p Latino

    0.0 1 h 44 min 2018

    Después de haber sido abandonada por su esposo, Deanna, ama de casa, decide darle un giro a su vida...

    Director: Ben Falcone

    Género: Comedia

    Actores: Yani Simone

  • Tully (2018) 1080p Latino

    2018
    Tully (2018) 1080p Latino

    0.0 1 h 35 min 2018

    La historia de una mujer con tres hijos que, incapaz de lidiar con su bebé recién nacido, contrata...

    Director: Jason Reitman

    Género: Comedia

    Actores: Stormy Ent

  • El padre del año (2018) WEB-DL 1080p Latino

    2018
    El padre del año (2018) WEB-DL 1080p Latino

    0.0 1h 34m 2018

    Dos universitarios recién graduados discuten borrachos sobre quién de sus padres ganaría una pelea....

    Director: Tyler Spindel

    Género: Comedia

    Actores: Ralph Ayala

  • El Justiciero (2014) Full 1080p Latino

    2014
    El Justiciero (2014) Full 1080p Latino

    4.0 2 h 12 min 2014

    Robert McCall, un antiguo agente de la CIA que lleva ahora una vida tranquila, abandona su retiro para...

    Director: Deirdre Horgan

    Género: Acción

    Actores: Yan Dron

Comentarios 20
  • danthor - 08 febrero, 2018

    esperando la versión en español latino

    • Dracarys - 09 febrero, 2018

      pronto

  • andrew - 25 enero, 2018

    oye amigo todas me dicen al descomprimir error en la suma de datos fichero dañado??? se corrige el problema o hay que volver a descargar

    • Dracarys - 29 enero, 2018

      actualizar winrar a la ultima version

  • marce - 23 enero, 2018

    igual no pasa de los 30 segundos, ni con hola

    • dpelis - 24 enero, 2018

      cambiar ip.

  • Tadeo - 22 enero, 2018

    Cual es la contraseña?

    • Dracarys - 22 enero, 2018

      cinemaniahdd.net

    • davinson - 22 enero, 2018

      full peliculas

    • Melito - 26 enero, 2018

      POR FAVOR, CONTRASEÑA

      • Dracarys - 26 enero, 2018

        cinemaniahdd.net

  • Jairo - 21 enero, 2018

    GRACIAS! Que bien que no esperaron a que salga el audio latino para subirla, deberian hacer eso con todas las peliculas, como La Liga de la Justicia.

  • Angelo - 21 enero, 2018

    Buenas, cuando tendrán la versión full 1080p en latino ? aproximadamente 🙂

    • Dracarys - 21 enero, 2018

      Primera semana de Marzo

  • kisnateax - 21 enero, 2018

    no me deja entrar a los link q puedo hacer no avanza los 30 seg

    • Dracarys - 21 enero, 2018

      Usa la extencion Hola y cambia la IP

      • Kambembe - 22 enero, 2018

        Amigo, como es eso de la extencion Hola y cambiar la IP

        • dpelis - 23 enero, 2018

          es hola es una extencio que sirve para cambiar ip. busque en google , hola para chrome y le aparecera la extencion oficial.

  • John Angulo - 21 enero, 2018

    Amigo! para cuando tendrán la version plateada y en latino 😀

    • Dracarys - 21 enero, 2018

      Para Marzo amigo.