The Wizard of Lies (2017) WEBDL 1080p Latino | CinemaniaHD - Descargar Peliculas 1080p Mega Google Drive

The Wizard of Lies (2017) WEBDL 1080p Latino

1.097 vistas
1 estrella2 estrellas3 estrellas4 estrellas5 estrellas (Ninguna valoración todavía)
Cargando…

Información de The Wizard of Lies (2017) WEBDL 1080p Latino

Datos de la película

  • Calidad: WEBDL
  • Audio: Español Latino AC3 2.0 Capturado - Ingles AC3 5.1 WEBDL
  • Subtitulos: Español Latino SRT - Ingles SRT
  • Resolución: 1920x1080p
  • Formato: MKV
  • Codec: H.264
  • Encoder: Dpelis
  • Mediainfo: Clic para Mostrar Datos Ver
  • The.Wizard.of.Lies.2017.1080p.WEBDL.1080p.LATINO.mkv
    Format                      : Matroska
    Format version              : Version 4 / Version 2
    File size                   : 3.86 GiB
    Duration                    : 2 h 12 min
    Overall bit rate mode       : Variable
    Overall bit rate            : 4 161 kb/s
    Movie name                  : DPeliculasHDMega.ORG
    Encoded date                : UTC 2017-05-29 22:30:10
    Writing application         : mkvmerge v10.0.0 ('To Drown In You') 64bit
    Writing library             : libebml v1.3.4 + libmatroska v1.4.5

    Video
    ID                          : 1
    Format                      : AVC
    Format/Info                 : Advanced Video Codec
    Format profile              : High@L4
    Format settings, CABAC      : Yes
    Format settings, ReFrames   : 4 frames
    Codec ID                    : V_MPEG4/ISO/AVC
    Duration                    : 2 h 12 min
    Bit rate mode               : Variable
    Bit rate                    : 3 584 kb/s
    Maximum bit rate            : 4 510 kb/s
    Width                       : 1 920 pixels
    Height                      : 1 080 pixels
    Display aspect ratio        : 16:9
    Frame rate mode             : Constant
    Frame rate                  : 23.976 (24000/1001) FPS
    Color space                 : YUV
    Chroma subsampling          : 4:2:0
    Bit depth                   : 8 bits
    Scan type                   : Progressive
    Bits/(Pixel*Frame)          : 0.072
    Stream size                 : 3.32 GiB (86%)
    Default                     : Yes
    Forced                      : No

    Audio #1
    ID                          : 2
    Format                      : AC-3
    Format/Info                 : Audio Coding 3
    Format settings, Endianness : Big
    Codec ID                    : A_AC3
    Duration                    : 2 h 12 min
    Bit rate mode               : Constant
    Bit rate                    : 192 kb/s
    Channel(s)                  : 2 channels
    Channel positions           : Front: L R
    Sampling rate               : 48.0 kHz
    Frame rate                  : 31.250 FPS (1536 spf)
    Bit depth                   : 16 bits
    Compression mode            : Lossy
    Delay relative to video     : -1 s 202 ms
    Stream size                 : 182 MiB (5%)
    Language                    : Spanish
    Service kind                : Complete Main
    Default                     : Yes
    Forced                      : No

    Audio #2
    ID                          : 3
    Format                      : AC-3
    Format/Info                 : Audio Coding 3
    Format settings, Endianness : Big
    Codec ID                    : A_AC3
    Duration                    : 2 h 12 min
    Bit rate mode               : Constant
    Bit rate                    : 384 kb/s
    Channel(s)                  : 6 channels
    Channel positions           : Front: L C R, Side: L R, LFE
    Sampling rate               : 48.0 kHz
    Frame rate                  : 31.250 FPS (1536 spf)
    Bit depth                   : 16 bits
    Compression mode            : Lossy
    Delay relative to video     : -2 s 2 ms
    Stream size                 : 364 MiB (9%)
    Language                    : English
    Service kind                : Complete Main
    Default                     : No
    Forced                      : No

    Text #1
    ID                          : 4
    Format                      : UTF-8
    Codec ID                    : S_TEXT/UTF8
    Codec ID/Info               : UTF-8 Plain Text
    Duration                    : 2 h 8 min
    Bit rate                    : 146 b/s
    Count of elements           : 2689
    Stream size                 : 138 KiB (0%)
    Language                    : English
    Default                     : No
    Forced                      : No

    Text #2
    ID                          : 5
    Format                      : UTF-8
    Codec ID                    : S_TEXT/UTF8
    Codec ID/Info               : UTF-8 Plain Text
    Duration                    : 2 h 7 min
    Bit rate                    : 92 b/s
    Count of elements           : 2495
    Stream size                 : 86.8 KiB (0%)
    Language                    : Spanish
    Default                     : Yes
    Forced                      : No

  • Peso: 3.86 GB

Sinopsis

La cadena por cable HBO plantea llevar la historia de Bernie Madoff, uno de los “capos” de Wall Street que fue detenido en 2008 acusado de fraudes que superaron los 50.000 millones de dólares y sentenciado a más de cien años de cárcel. La biopic, que se encuentra en su fase de preproducción, estará protagonizada por Robert de Niro (‘El Padrino, ‘Taxi Driver’), quien, además de ser el productor ejecutivo de la cinta, será el encargado de interpretar a uno de los estafadores más conocidos del siglo XXI.

Ficha técnica

Video trailer de la película

Enlaces de descarga

Descargar The Wizard of Lies (2017) WEBDL 1080p Latino
Aportes de DPeliculasHDmega la pass es:dpeliculashdmega.org Aportes de CinemaniaHD la pass es:cinemaniahdd.com

Películas relacionadas

  • María Magdalena (2018) Full 1080p Latino

    2018
    María Magdalena (2018) Full 1080p Latino

    5.0 2h 0m 2018

    Relato de la historia bíblica desde el punto de vista biográfico de María Magdalena (Rooney Mara),...

    Director: Phil Jones

    Género: Drama

    Actores: Zohar Strauss

  • Dios no está muerto 3 (2018) WEBDL 1080p Latino

    2018
    Dios no está muerto 3 (2018) WEBDL 1080p Latino

    3.0 1h 45m 2018

    Después de que su iglesia termine pasto de las llamas de un incendio, un pastor religioso pide asesoramiento...

    Director: Michael Mason

    Género: Drama

    Actores: Ted McGinley

  • Piso de soltero (1960) Full 1080p Latino

    1960
    Piso de soltero (1960) Full 1080p Latino

    5.0 2 h 5 min 1960

    C.C. Baxter es un modesto pero ambicioso empleado de una compañía de seguros de Manhattan. Está soltero...

    Director: May Wale Brown

    Género: Comedia

    Actores: Willard Waterman

Comentarios 0