The Villainess (2017) 1080p Latino

1.929 vistas
1 estrella2 estrellas3 estrellas4 estrellas5 estrellas (1 votos, promedio: 5,00 de 5)
Cargando…

Información de The Villainess (2017) 1080p Latino

Datos de la película

  • Calidad: 1080p
  • Audio: Español Latino AC3 2.0 iTUNES - Coreano AC3 5.1 BLURAY
  • Subtitulos: Español Latino SRT
  • Resolución: 1920X804p
  • Formato: MKV
  • Codec: H.264
  • Encoder: Dracarys
  • Mediainfo: Clic para Mostrar Datos Ver
  • Format                                   : Matroska
    Format version                           : Version 4 / Version 2
    File size                                : 3.68 GiB
    Duration                                 : 2 h 3 min
    Overall bit rate                         : 4 273 kb/s
    Movie name                               : CinemaniaHDD.com
    Encoded date                             : UTC 2018-01-27 22:59:55 / UTC 2018-01-27T20:22:23Z
    Writing application                      : mkvmerge v15.0.0 ('Duel with the Devil') 64-bit
    Writing library                          : libebml v1.3.5 + libmatroska v1.4.5 / Lavf57.7.2

    Video
    ID                                       : 1
    Format                                   : AVC
    Format/Info                              : Advanced Video Codec
    Format profile                           : High@L4.1
    Format settings                          : CABAC / 4 Ref Frames
    Format settings, CABAC                   : Yes
    Format settings, RefFrames               : 4 frames
    Codec ID                                 : V_MPEG4/ISO/AVC
    Duration                                 : 2 h 3 min
    Bit rate                                 : 3 500 kb/s
    Width                                    : 1 920 pixels
    Height                                   : 804 pixels
    Display aspect ratio                     : 2.40:1
    Frame rate mode                          : Constant
    Frame rate                               : 24.000 FPS
    Color space                              : YUV
    Chroma subsampling                       : 4:2:0
    Bit depth                                : 8 bits
    Scan type                                : Progressive
    Bits/(Pixel*Frame)                       : 0.094
    Stream size                              : 2.89 GiB (79%)
    Writing library                          : x264 core 148 r2708 86b7198
    Encoding settings                        : cabac=1 / ref=3 / deblock=1:0:0 / analyse=0x3:0x113 / me=hex / subme=7 / psy=1 / psy_rd=1.00:0.00 / mixed_ref=1 / me_range=16 / chroma_me=1 / trellis=1 / 8x8dct=1 / cqm=0 / deadzone=21,11 / fast_pskip=1 / chroma_qp_offset=-2 / threads=25 / lookahead_threads=4 / sliced_threads=0 / nr=0 / decimate=1 / interlaced=0 / bluray_compat=0 / constrained_intra=0 / bframes=3 / b_pyramid=2 / b_adapt=1 / b_bias=0 / direct=1 / weightb=1 / open_gop=0 / weightp=2 / keyint=240 / keyint_min=24 / scenecut=40 / intra_refresh=0 / rc_lookahead=40 / rc=abr / mbtree=1 / bitrate=3500 / ratetol=1.0 / qcomp=0.60 / qpmin=0 / qpmax=69 / qpstep=4 / vbv_maxrate=62500 / vbv_bufsize=78125 / nal_hrd=none / filler=0 / ip_ratio=1.40 / aq=1:1.00
    Language                                 : Korean
    Default                                  : Yes
    Forced                                   : No
    Color range                              : Limited
    Color primaries                          : BT.709
    Transfer characteristics                 : BT.709
    Matrix coefficients                      : BT.709
    Statistics Tags Issue                    : mkvmerge v15.0.0 ('Duel with the Devil') 64-bit 2018-01-27 22:59:55 / mkvmerge v15.0.0 ('Duel with the Devil') 64-bit 2018-01-27 22:59:55 / UTC 2018-01-27T20:22:23Z
    FromStats_BitRate                        : 3438906
    FromStats_Duration                       : 02:03:22.000000000
    FromStats_FrameCount                     : 177648
    FromStats_StreamSize                     : 3181848450

    Audio #1
    ID                                       : 2
    Format                                   : AC-3
    Format/Info                              : Audio Coding 3
    Format settings, Endianness              : Big
    Codec ID                                 : A_AC3
    Duration                                 : 2 h 3 min
    Bit rate mode                            : Constant
    Bit rate                                 : 192 kb/s
    Channel(s)                               : 2 channels
    Channel positions                        : Front: L R
    Sampling rate                            : 48.0 kHz
    Frame rate                               : 31.250 FPS (1536 SPF)
    Bit depth                                : 16 bits
    Compression mode                         : Lossy
    Delay relative to video                  : -5 ms
    Stream size                              : 169 MiB (4%)
    Language                                 : Spanish
    Service kind                             : Complete Main
    Default                                  : Yes
    Forced                                   : No
    Statistics Tags Issue                    : mkvmerge v15.0.0 ('Duel with the Devil') 64-bit 2018-01-27 22:59:55 / mkvmerge v15.0.0 ('Duel with the Devil') 64-bit 2018-01-27 22:59:55 / UTC 2018-01-27T20:22:23Z
    FromStats_BitRate                        : 192000
    FromStats_Duration                       : 02:03:22.016000000
    FromStats_FrameCount                     : 231313
    FromStats_StreamSize                     : 177648384

    Audio #2
    ID                                       : 3
    Format                                   : AC-3
    Format/Info                              : Audio Coding 3
    Format settings, Endianness              : Big
    Codec ID                                 : A_AC3
    Duration                                 : 2 h 3 min
    Bit rate mode                            : Constant
    Bit rate                                 : 640 kb/s
    Channel(s)                               : 6 channels
    Channel positions                        : Front: L C R, Side: L R, LFE
    Sampling rate                            : 48.0 kHz
    Frame rate                               : 31.250 FPS (1536 SPF)
    Bit depth                                : 16 bits
    Compression mode                         : Lossy
    Delay relative to video                  : -5 ms
    Stream size                              : 565 MiB (15%)
    Language                                 : Korean
    Service kind                             : Complete Main
    Default                                  : No
    Forced                                   : No
    Statistics Tags Issue                    : mkvmerge v15.0.0 ('Duel with the Devil') 64-bit 2018-01-27 22:59:55 / mkvmerge v15.0.0 ('Duel with the Devil') 64-bit 2018-01-27 22:59:55 / UTC 2018-01-27T20:22:23Z
    FromStats_BitRate                        : 640000
    FromStats_Duration                       : 02:03:21.984000000
    FromStats_FrameCount                     : 231312
    FromStats_StreamSize                     : 592158720

    Text
    ID                                       : 4
    Format                                   : UTF-8
    Codec ID                                 : S_TEXT/UTF8
    Codec ID/Info                            : UTF-8 Plain Text
    Language                                 : Spanish
    Default                                  : No
    Forced                                   : No
    Statistics Tags Issue                    : mkvmerge v15.0.0 ('Duel with the Devil') 64-bit 2018-01-27 22:59:55 / mkvmerge v15.0.0 ('Duel with the Devil') 64-bit 2018-01-27 22:59:55 / UTC 2018-01-27T20:22:23Z
    FromStats_BitRate                        : 23
    FromStats_Duration                       : 02:03:02.280000000
    FromStats_FrameCount                     : 870
    FromStats_StreamSize                     : 21855

    Menu
    00:00:00.000                             : :00:00:00.000
    00:08:22.250                             : :00:08:22.250
    00:16:27.625                             : :00:16:27.417
    00:23:30.083                             : :00:23:29.833
    00:41:04.417                             : :00:41:04.417
    00:49:00.542                             : :00:49:00.417
    00:54:40.417                             : :00:54:40.417
    01:04:56.250                             : :01:04:56.250
    01:16:03.667                             : :01:16:03.417
    01:42:00.500                             : :01:42:00.417
    01:59:01.667                             : :01:59:01.417

  • Peso: 3.68 GiB

Sinopsis

Desde la infancia, Sook-Hee ha sido entrenada para convertirse en una asesina sin piedad. Cuando Madame Kwon, la jefa del servicio de información de Corea del Sur, la recluta como agente durmiente, le ofrece una segunda oportunidad. “Danos diez años de tu vida y tendrás tu libertad”. Su nueva identidad es Chae Yeon-Soo, una actriz de teatro de 27 años. Con la promesa de una libertad completa a cambio de servir a su país durante diez años, Sook-Hee emprende una nueva vida. Para esta mujer que ha vivido como asesina, llevar una existencia normal no resulta una tarea sencilla. Pero cuando dos hombres entran en su vida, los secretos de su pasado serán desvelados.

Ficha técnica

  • Titulo original: 악녀
  • Fecha de lanzamiento: 08-06-2017 (South Korea)
  • Director: Jung Byung-gil
  • Género: Acción, Drama
  • Puntuación: 5.0 1 votos
  • Duración:
    2 h 3 min

Video trailer de la película

Enlaces de descarga

Rip de Bluray

Descargar The Villainess (2017) 1080p Latino




Aportes de DPeliculasHDmega la pass es:dpeliculashdmega.org Aportes de CinemaniaHD la pass es:cinemaniahdd.com
Guardado en : Acción , Drama

Películas relacionadas

  • Occupation (2018) WEBDL 1080p Subtitulada

    2018
    Occupation (2018) WEBDL 1080p Subtitulada

    0.0 1h 59m 2018

    El film se centra en un grupo de civiles que ven como su pequeño pueblo en Australia es aniquilado por...

    Director: Luke Sparke

    Género: Acción

    Actores: Temuera Morrison

  • Tully (2018) 1080p Latino

    2018
    Tully (2018) 1080p Latino

    0.0 1 h 35 min 2018

    La historia de una mujer con tres hijos que, incapaz de lidiar con su bebé recién nacido, contrata...

    Director: Jason Reitman

    Género: Comedia

    Actores: Stormy Ent

  • Si solo pudiera imaginar (2018) Full 1080p Latino

    2018
    Si solo pudiera imaginar (2018) Full 1080p Latino

    4.8 1 h 50 min 2018

    La historia real de la aclamada canción "I Can Only Imagine", la canción cristiana contemporánea más...

    Director: Jon Erwin

    Género: Drama

    Actores: Trace Adkins

  • El Justiciero (2014) Full 1080p Latino

    2014
    El Justiciero (2014) Full 1080p Latino

    4.3 2 h 12 min 2014

    Robert McCall, un antiguo agente de la CIA que lleva ahora una vida tranquila, abandona su retiro para...

    Director: Deirdre Horgan

    Género: Acción

    Actores: Yan Dron

Comentarios 0