The Razor’s Edge (1946) Full 1080p Latino

423 vistas
1 estrella2 estrellas3 estrellas4 estrellas5 estrellas (1 votos, promedio: 5,00 de 5)
Cargando…

Información de The Razor’s Edge (1946) Full 1080p Latino

Datos de la película

  • Calidad: Full 1080p
  • Audio: Se especifica abajo de la Sinopsis
  • Subtitulos: Español Latino PGS - Ingles PGS
  • Resolución: 1920x1080p
  • Formato: MKV
  • Codec: H.264
  • Encoder: Dracarys
  • Mediainfo: Clic para Mostrar Datos Ver
  • Format                                   : Matroska
    Format version                           : Version 4 / Version 2
    File size                                : 6.69 GiB
    Duration                                 : 2 h 24 min
    Overall bit rate                         : 6 612 kb/s
    Movie name                               : CinemaniaHDD.net
    Encoded date                             : UTC 2018-09-13 02:43:21 / UTC 2018-09-11T10:44:21Z
    Writing application                      : mkvmerge v15.0.0 ('Duel with the Devil') 64-bit
    Writing library                          : libebml v1.3.5 + libmatroska v1.4.5 / Lavf57.7.2

    Video
    ID                                       : 1
    Format                                   : AVC
    Format/Info                              : Advanced Video Codec
    Format profile                           : High@L4.1
    Format settings                          : CABAC / 4 Ref Frames
    Format settings, CABAC                   : Yes
    Format settings, RefFrames               : 4 frames
    Codec ID                                 : V_MPEG4/ISO/AVC
    Duration                                 : 2 h 24 min
    Bit rate                                 : 5 520 kb/s
    Width                                    : 1 920 pixels
    Height                                   : 1 080 pixels
    Display aspect ratio                     : 16:9
    Frame rate mode                          : Constant
    Frame rate                               : 23.976 (24000/1001) FPS
    Color space                              : YUV
    Chroma subsampling                       : 4:2:0
    Bit depth                                : 8 bits
    Scan type                                : Progressive
    Bits/(Pixel*Frame)                       : 0.111
    Stream size                              : 5.59 GiB (83%)
    Title                                    : The Razor's Edge (1946) Full 1080p Latino
    Writing library                          : x264 core 148 r2708 86b7198
    Encoding settings                        : cabac=1 / ref=4 / deblock=1:0:0 / analyse=0x3:0x133 / me=esa / subme=10 / psy=1 / psy_rd=1.00:0.00 / mixed_ref=1 / me_range=24 / chroma_me=1 / trellis=2 / 8x8dct=1 / cqm=0 / deadzone=21,11 / fast_pskip=1 / chroma_qp_offset=-2 / threads=34 / lookahead_threads=5 / sliced_threads=0 / nr=0 / decimate=1 / interlaced=0 / bluray_compat=0 / constrained_intra=0 / bframes=8 / b_pyramid=2 / b_adapt=2 / b_bias=0 / direct=3 / weightb=1 / open_gop=0 / weightp=2 / keyint=240 / keyint_min=24 / scenecut=40 / intra_refresh=0 / rc_lookahead=60 / rc=crf / mbtree=1 / crf=20.0 / qcomp=0.60 / qpmin=0 / qpmax=69 / qpstep=4 / vbv_maxrate=62500 / vbv_bufsize=78125 / crf_max=0.0 / nal_hrd=none / filler=0 / ip_ratio=1.40 / aq=1:1.00
    Language                                 : English
    Default                                  : Yes
    Forced                                   : No
    Color range                              : Limited
    Color primaries                          : BT.709
    Transfer characteristics                 : BT.709
    Matrix coefficients                      : BT.709
    Statistics Tags Issue                    : mkvmerge v15.0.0 ('Duel with the Devil') 64-bit 2018-09-13 02:43:21 / mkvmerge v15.0.0 ('Duel with the Devil') 64-bit 2018-09-13 02:43:21 / UTC 2018-09-11T10:44:21Z
    FromStats_BitRate                        : 5623688
    FromStats_Duration                       : 02:24:56.730000000
    FromStats_FrameCount                     : 208513
    FromStats_StreamSize                     : 6113462663

    Audio #1
    ID                                       : 2
    Format                                   : AC-3
    Format/Info                              : Audio Coding 3
    Format settings, Endianness              : Big
    Codec ID                                 : A_AC3
    Duration                                 : 2 h 24 min
    Bit rate mode                            : Constant
    Bit rate                                 : 192 kb/s
    Channel(s)                               : 1 channel
    Channel positions                        : Front: C
    Sampling rate                            : 48.0 kHz
    Frame rate                               : 31.250 FPS (1536 SPF)
    Bit depth                                : 16 bits
    Compression mode                         : Lossy
    Stream size                              : 199 MiB (3%)
    Language                                 : Spanish
    Service kind                             : Complete Main
    Default                                  : Yes
    Forced                                   : No
    Statistics Tags Issue                    : mkvmerge v15.0.0 ('Duel with the Devil') 64-bit 2018-09-13 02:43:21 / mkvmerge v15.0.0 ('Duel with the Devil') 64-bit 2018-09-13 02:43:21 / UTC 2018-09-11T10:44:21Z
    FromStats_BitRate                        : 192000
    FromStats_Duration                       : 02:24:56.736000000
    FromStats_FrameCount                     : 271773
    FromStats_StreamSize                     : 208721664

    Audio #2
    ID                                       : 3
    Format                                   : DTS
    Format/Info                              : Digital Theater Systems
    Mode                                     : 16
    Format settings, Endianness              : Big
    Codec ID                                 : A_DTS
    Duration                                 : 2 h 24 min
    Bit rate mode                            : Constant
    Bit rate                                 : 768 kb/s
    Channel(s)                               : 1 channel
    Channel positions                        : Front: C
    Sampling rate                            : 48.0 kHz
    Frame rate                               : 93.750 FPS (512 SPF)
    Bit depth                                : 24 bits
    Compression mode                         : Lossy
    Stream size                              : 796 MiB (12%)
    Language                                 : English
    Default                                  : No
    Forced                                   : No
    Statistics Tags Issue                    : mkvmerge v15.0.0 ('Duel with the Devil') 64-bit 2018-09-13 02:43:21 / mkvmerge v15.0.0 ('Duel with the Devil') 64-bit 2018-09-13 02:43:21 / UTC 2018-09-11T10:44:21Z
    FromStats_BitRate                        : 767999
    FromStats_Duration                       : 02:24:56.726000000
    FromStats_FrameCount                     : 815318
    FromStats_StreamSize                     : 834885632

    Text #1
    ID                                       : 4
    Format                                   : PGS
    Muxing mode                              : zlib
    Codec ID                                 : S_HDMV/PGS
    Codec ID/Info                            : Picture based subtitle format used on BDs/HD-DVDs
    Language                                 : English
    Default                                  : No
    Forced                                   : No
    Statistics Tags Issue                    : mkvmerge v15.0.0 ('Duel with the Devil') 64-bit 2018-09-13 02:43:21 / mkvmerge v15.0.0 ('Duel with the Devil') 64-bit 2018-09-13 02:43:21 / UTC 2018-09-11T10:44:21Z
    FromStats_BitRate                        : 48828
    FromStats_Duration                       : 02:22:27.331000000
    FromStats_FrameCount                     : 4023
    FromStats_StreamSize                     : 52168735

    Text #2
    ID                                       : 5
    Format                                   : PGS
    Muxing mode                              : zlib
    Codec ID                                 : S_HDMV/PGS
    Codec ID/Info                            : Picture based subtitle format used on BDs/HD-DVDs
    Language                                 : Spanish
    Default                                  : No
    Forced                                   : No
    Statistics Tags Issue                    : mkvmerge v15.0.0 ('Duel with the Devil') 64-bit 2018-09-13 02:43:21 / mkvmerge v15.0.0 ('Duel with the Devil') 64-bit 2018-09-13 02:43:21 / UTC 2018-09-11T10:44:21Z
    FromStats_BitRate                        : 42584
    FromStats_Duration                       : 02:24:16.856000000
    FromStats_FrameCount                     : 3538
    FromStats_StreamSize                     : 46080989

    Menu
    00:00:00.000                             : :Chapter 1
    00:01:34.511                             : :Chapter 2
    00:08:06.486                             : :Chapter 3
    00:11:23.683                             : :Chapter 4
    00:18:22.435                             : :Chapter 5
    00:22:06.700                             : :Chapter 6
    00:26:37.387                             : :Chapter 7
    00:31:37.229                             : :Chapter 8
    00:41:08.883                             : :Chapter 9
    00:45:59.090                             : :Chapter 10
    00:51:58.157                             : :Chapter 11
    00:57:11.094                             : :Chapter 12
    01:00:34.881                             : :Chapter 13
    01:07:13.696                             : :Chapter 14
    01:13:01.294                             : :Chapter 15
    01:21:04.902                             : :Chapter 16
    01:29:51.428                             : :Chapter 17
    01:32:30.336                             : :Chapter 18
    01:34:39.883                             : :Chapter 19
    01:40:01.370                             : :Chapter 20
    01:44:30.598                             : :Chapter 21
    01:51:11.206                             : :Chapter 22
    01:56:47.250                             : :Chapter 23
    02:03:04.377                             : :Chapter 24
    02:07:15.878                             : :Chapter 25
    02:13:04.602                             : :Chapter 26
    02:18:49.321                             : :Chapter 27
    02:22:37.632                             : :Chapter 28

  • Peso: 6.69 GiB

Sinopsis

Adaptación de la célebre novela de Somerset Maugham. Los horrores de la guerra hacen que Larry Darrell (Tyrone Power) lo abandone todo, incluso a los que han formado parte de su vida. Viaja a Europa y después a la India con la intención de encontrar un sentido a su vida.

 

Latino: AC3 1.0 Bluray  –  Ingles: DTS 1.0 Bluray

Ficha técnica

Video trailer de la película

Enlaces de descarga

Rip de Bluray

Descargar The Razor’s Edge (1946) Full 1080p Latino




Aportes de DPeliculasHDmega la pass es:dpeliculashdmega.org Aportes de CinemaniaHD la pass es:cinemaniahdd.com

Películas relacionadas

Comentarios 0