The Possession Experiment (2016) WEBDL 1080p Latino

1.291 vistas
1 estrella2 estrellas3 estrellas4 estrellas5 estrellas (Ninguna valoración todavía)
Cargando…

Información de The Possession Experiment (2016) WEBDL 1080p Latino

Datos de la película

  • Calidad: WEBDL
  • Audio: Español Latino AC3 2.0 DVD - Ingles AC3 5.1 BLURAY
  • Subtitulos: Español Latino SRT - Ingles SRT
  • Resolución: 1920x792p
  • Formato: MKV
  • Codec: H.264
  • Encoder: Dpelis
  • Mediainfo: Clic para Mostrar Datos Ver
  • The Possession Experiment (2016) WEBDL 1080p LATINO.mkv
    Format                      : Matroska
    Format version              : Version 4 / Version 2
    File size                   : 3.07 GiB
    Duration                    : 1 h 24 min
    Overall bit rate            : 5 199 kb/s
    Movie name                  : DPeliculasHDMega.ORG
    Encoded date                : UTC 2017-06-12 11:52:41
    Writing application         : mkvmerge v10.0.0 ('To Drown In You') 64bit
    Writing library             : libebml v1.3.4 + libmatroska v1.4.5
    Cover                       : Yes
    Attachments                 : cover_land.jpg / small_cover.jpg / small_cover_land.jpg / cover.jpg

    Video
    ID                          : 1
    Format                      : AVC
    Format/Info                 : Advanced Video Codec
    Format profile              : High@L4
    Format settings, CABAC      : Yes
    Format settings, ReFrames   : 5 frames
    Codec ID                    : V_MPEG4/ISO/AVC
    Duration                    : 1 h 24 min
    Bit rate                    : 4 556 kb/s
    Width                       : 1 920 pixels
    Height                      : 798 pixels
    Display aspect ratio        : 2.40:1
    Frame rate mode             : Constant
    Frame rate                  : 23.976 (23976/1000) FPS
    Color space                 : YUV
    Chroma subsampling          : 4:2:0
    Bit depth                   : 8 bits
    Scan type                   : Progressive
    Bits/(Pixel*Frame)          : 0.124
    Stream size                 : 2.69 GiB (88%)
    Language                    : English
    Default                     : Yes
    Forced                      : No
    Color range                 : Limited
    Color primaries             : BT.709
    Transfer characteristics    : BT.709
    Matrix coefficients         : BT.709

    Audio #1
    ID                          : 2
    Format                      : AC-3
    Format/Info                 : Audio Coding 3
    Format settings, Endianness : Big
    Codec ID                    : A_AC3
    Duration                    : 1 h 24 min
    Bit rate mode               : Constant
    Bit rate                    : 256 kb/s
    Channel(s)                  : 2 channels
    Channel positions           : Front: L R
    Sampling rate               : 48.0 kHz
    Frame rate                  : 31.250 FPS (1536 spf)
    Bit depth                   : 16 bits
    Compression mode            : Lossy
    Delay relative to video     : 24 ms
    Stream size                 : 155 MiB (5%)
    Language                    : Spanish
    Service kind                : Complete Main
    Default                     : Yes
    Forced                      : No

    Audio #2
    ID                          : 3
    Format                      : AC-3
    Format/Info                 : Audio Coding 3
    Format settings, Endianness : Big
    Codec ID                    : A_AC3
    Duration                    : 1 h 24 min
    Bit rate mode               : Constant
    Bit rate                    : 384 kb/s
    Channel(s)                  : 6 channels
    Channel positions           : Front: L C R, Side: L R, LFE
    Sampling rate               : 48.0 kHz
    Frame rate                  : 31.250 FPS (1536 spf)
    Bit depth                   : 16 bits
    Compression mode            : Lossy
    Stream size                 : 232 MiB (7%)
    Language                    : English
    Service kind                : Complete Main
    Default                     : No
    Forced                      : No

    Text #1
    ID                          : 4
    Format                      : UTF-8
    Codec ID                    : S_TEXT/UTF8
    Codec ID/Info               : UTF-8 Plain Text
    Duration                    : 1 h 20 min
    Bit rate                    : 48 b/s
    Count of elements           : 781
    Stream size                 : 28.7 KiB (0%)
    Language                    : Spanish
    Default                     : No
    Forced                      : No

    Text #2
    ID                          : 5
    Format                      : UTF-8
    Codec ID                    : S_TEXT/UTF8
    Codec ID/Info               : UTF-8 Plain Text
    Duration                    : 1 h 20 min
    Bit rate                    : 52 b/s
    Count of elements           : 983
    Stream size                 : 31.2 KiB (0%)
    Language                    : English
    Default                     : Yes
    Forced                      : No

    Menu
    00:00:00.000                : en:1
    00:07:41.336                : en:2
    00:11:07.917                : en:3
    00:13:35.564                : en:4
    00:17:30.757                : en:5
    00:22:21.589                : en:6
    00:26:54.320                : en:7
    00:32:07.633                : en:8
    00:38:18.920                : en:9
    00:44:52.813                : en:10
    00:50:10.338                : en:11
    00:55:47.925                : en:12
    01:01:37.983                : en:13
    01:09:57.232                : en:14
    01:14:57.657                : en:15
    01:20:54.889                : en:16

  • Peso: 3.07 GB

Sinopsis

Un estudiante decide hacer un experimento para su clase de teología intentando contactarse con fuerzas sobrenaturales. Pero nunca espera que espíritus oscuros también quiera encontrarse con él.

Ficha técnica

  • Titulo original: The Possession Experiment
  • Fecha de lanzamiento: 14-10-2016
  • Director: Scott B. Hansen
  • Género: Suspense, Terror
  • Puntuación: 0.0 0 votos
  • Duración:
    1h 24m

Video trailer de la película

Enlaces de descarga

Rip de Bluray

Descargar The Possession Experiment (2016) WEBDL 1080p Latino




Aportes de DPeliculasHDmega la pass es:dpeliculashdmega.org Aportes de CinemaniaHD la pass es:cinemaniahdd.com
Guardado en : Suspense , Terror

Películas relacionadas

  • Sicario (2015) Full 1080p Latino

    2015
    Sicario (2015) Full 1080p Latino

    5.0 2h 1m 2015

    En la zona fronteriza que se extiende entre Estados Unidos y México la joven Kate Macer, una idealista...

    Director: Judi Townsend

    Género: Acción

    Actores: Victor Garber

  • Fahrenheit 451 (2018) Full 1080p Latino

    2018
    Fahrenheit 451 (2018) Full 1080p Latino

    5.0 1h 36m 2018

    Michael B. Jordan y Michael Shannon protagonizan esta adaptación de HBO de la clásica novela distópica...

    Director: Ramin Bahrani

    Género: Ciencia ficción

    Actores: Tim Post

  • Tiempo de matar (1996) Full 1080p Latino

    1996
    Tiempo de matar (1996) Full 1080p Latino

    5.0 2h 29m 1996

    En una tranquila localidad sureña de Mississippi dos jóvenes borrachos violan salvajemente a una niña...

    Director: William M. Elvin

    Género: Crimen

    Actores: William Truly Jr.

Comentarios 0