The Matrix Reloaded (2003) WEB-DL [Open Matte] 1080p Latino

741 vistas
1 estrella2 estrellas3 estrellas4 estrellas5 estrellas (1 votos, promedio: 1,00 de 5)
Cargando…

Información de The Matrix Reloaded (2003) WEB-DL [Open Matte] 1080p Latino

Datos de la película

  • Calidad: WEBDL
  • Audio: Español Latino AC3 2.0 BLURAY - Ingles DTS 5.1 BLURAY
  • Subtitulos: Español Latino SRT - Ingles SRT
  • Resolución: 1920x1080p
  • Formato: MKV
  • Codec: H.264
  • Encoder: Dracarys
  • Mediainfo: Clic para Mostrar Datos Ver
  • Format                                   : Matroska
    Format version                           : Version 4 / Version 2
    File size                                : 6.33 GiB
    Duration                                 : 2 h 18 min
    Overall bit rate                         : 6 555 kb/s
    Movie name                               : CinemaniaHDD.com
    Encoded date                             : UTC 2018-03-28 05:49:41
    Writing application                      : mkvmerge v15.0.0 ('Duel with the Devil') 64-bit
    Writing library                          : libebml v1.3.5 + libmatroska v1.4.5

    Video
    ID                                       : 1
    Format                                   : AVC
    Format/Info                              : Advanced Video Codec
    Format profile                           : High@L4.1
    Format settings                          : CABAC / 4 Ref Frames
    Format settings, CABAC                   : Yes
    Format settings, RefFrames               : 4 frames
    Codec ID                                 : V_MPEG4/ISO/AVC
    Duration                                 : 2 h 17 min
    Bit rate                                 : 5 120 kb/s
    Width                                    : 1 920 pixels
    Height                                   : 1 080 pixels
    Display aspect ratio                     : 16:9
    Frame rate mode                          : Constant
    Frame rate                               : 23.976 (24000/1001) FPS
    Color space                              : YUV
    Chroma subsampling                       : 4:2:0
    Bit depth                                : 8 bits
    Scan type                                : Progressive
    Bits/(Pixel*Frame)                       : 0.103
    Stream size                              : 4.69 GiB (74%)
    Title                                    : The Matrix Reloaded (2003) WEB-DL [Open Matte] 1080p Latino
    Writing library                          : x264 core 142
    Encoding settings                        : cabac=1 / ref=3 / deblock=1:0:0 / analyse=0x3:0x113 / me=hex / subme=7 / psy=1 / psy_rd=1.00:0.00 / mixed_ref=1 / me_range=16 / chroma_me=1 / trellis=1 / 8x8dct=1 / cqm=0 / deadzone=21,11 / fast_pskip=1 / chroma_qp_offset=-2 / threads=36 / lookahead_threads=6 / sliced_threads=0 / nr=0 / decimate=1 / interlaced=0 / bluray_compat=0 / constrained_intra=0 / bframes=6 / b_pyramid=2 / b_adapt=1 / b_bias=0 / direct=1 / weightb=1 / open_gop=0 / weightp=2 / keyint=200 / keyint_min=20 / scenecut=0 / intra_refresh=0 / rc_lookahead=40 / rc=2pass / mbtree=1 / bitrate=5120 / ratetol=1.0 / qcomp=0.60 / qpmin=0 / qpmax=69 / qpstep=4 / cplxblur=20.0 / qblur=0.5 / vbv_maxrate=7680 / vbv_bufsize=20480 / nal_hrd=none / filler=0 / ip_ratio=1.40 / aq=1:1.00
    Language                                 : English
    Default                                  : Yes
    Forced                                   : No

    Audio #1
    ID                                       : 2
    Format                                   : AC-3
    Format/Info                              : Audio Coding 3
    Mode                                     : Dolby Digital
    Format settings, Endianness              : Big
    Codec ID                                 : A_AC3
    Duration                                 : 2 h 16 min
    Bit rate mode                            : Constant
    Bit rate                                 : 192 kb/s
    Channel(s)                               : 2 channels
    Channel positions                        : Front: L R
    Sampling rate                            : 48.0 kHz
    Frame rate                               : 31.250 FPS (1536 SPF)
    Bit depth                                : 16 bits
    Compression mode                         : Lossy
    Stream size                              : 188 MiB (3%)
    Language                                 : Spanish
    Service kind                             : Complete Main
    Default                                  : Yes
    Forced                                   : No

    Audio #2
    ID                                       : 3
    Format                                   : DTS
    Format/Info                              : Digital Theater Systems
    Mode                                     : 16
    Format settings, Endianness              : Big
    Codec ID                                 : A_DTS
    Duration                                 : 2 h 18 min
    Bit rate mode                            : Constant
    Bit rate                                 : 1 509 kb/s
    Channel(s)                               : 6 channels
    Channel positions                        : Front: L C R, Side: L R, LFE
    Sampling rate                            : 48.0 kHz
    Frame rate                               : 93.750 FPS (512 SPF)
    Bit depth                                : 16 bits
    Compression mode                         : Lossy
    Stream size                              : 1.46 GiB (23%)
    Language                                 : English
    Default                                  : No
    Forced                                   : No

    Text #1
    ID                                       : 4
    Format                                   : UTF-8
    Codec ID                                 : S_TEXT/UTF8
    Codec ID/Info                            : UTF-8 Plain Text
    Duration                                 : 2 h 15 min
    Bit rate                                 : 45 b/s
    Count of elements                        : 1192
    Stream size                              : 45.2 KiB (0%)
    Language                                 : English
    Default                                  : No
    Forced                                   : No

    Text #2
    ID                                       : 5
    Format                                   : UTF-8
    Codec ID                                 : S_TEXT/UTF8
    Codec ID/Info                            : UTF-8 Plain Text
    Duration                                 : 2 h 15 min
    Bit rate                                 : 48 b/s
    Count of elements                        : 1193
    Stream size                              : 48.5 KiB (0%)
    Language                                 : Spanish
    Default                                  : No
    Forced                                   : No

    Menu
    00:00:00.000                             : en:Trinity's In
    00:03:50.230                             : en:Trust Me
    00:08:55.368                             : en:Upgrades
    00:12:16.903                             : en:Zion
    00:16:24.317                             : en:Matter of Time
    00:19:43.182                             : en:Homecomings
    00:23:29.408                             : en:We Are Still Here
    00:27:26.812                             : en:Celebrating Humanity
    00:32:01.253                             : en:Smith Will Suffice
    00:33:43.188                             : en:What Is Control?
    00:37:57.442                             : en:Summoned
    00:40:55.620                             : en:Seraph
    00:43:44.956                             : en:The Oracle
    00:50:42.706                             : en:Swarm of Smiths
    00:55:08.472                             : en:Sticking It to Them
    01:00:03.099                             : en:The Volunteer
    01:02:49.766                             : en:Taste of Merovingian
    01:08:52.295                             : en:Persephone's Kiss
    01:13:06.882                             : en:Unlocking the Keymaker
    01:16:21.410                             : en:Blade Leapers
    01:20:31.827                             : en:Twin Trouble
    01:22:47.129                             : en:Freeway Entrance
    01:26:12.501                             : en:Cross-Vehicular Traffic
    01:29:52.887                             : en:Biker Girl
    01:32:50.899                             : en:Trucks Amuck
    01:37:10.825                             : en:The Reason We're Here
    01:40:51.379                             : en:Sacrifice and Sabotage
    01:44:57.791                             : en:So Many of Me
    01:48:12.152                             : en:The Architect
    01:52:25.572                             : en:The One's Function
    01:55:42.936                             : en:Neo's Choice
    01:57:37.550                             : en:Not Letting Go
    02:01:51.471                             : en:Bomb's Target
    02:04:18.451                             : en:Feeling the Enemy
    02:07:04.116                             : en:End Credits (Calm Like a Bomb, Reload, Sleeping Awake, Session, When the World Ends (Oakenfold Remix))
    02:16:29.681                             : en:The Matrix Revolutions Trailer

  • Peso: 6.33 GiB

Sinopsis

Las máquinas avanzan imparables hacia Zion en su afán por destruir a toda la humanidad y todas las naves se preparan para la dura batalla. Neo junto con Morfeo y Trinity buscan el camino del elegido dentro de Matrix para vencer a las máquinas y se encuentran con dificultades inesperadas: el agente Smith ha vuelto, y no solo eso, otros programas dentro de Matrix intentarán acabar con su misión. Mientras tanto Neo se tendrá que adaptar a la vida real y a la fama de ser el elegido.

Ficha técnica

Video trailer de la película

Enlaces de descarga

Rip de Bluray

Descargar The Matrix Reloaded (2003) WEB-DL [Open Matte] 1080p Latino




Aportes de DPeliculasHDmega la pass es:dpeliculashdmega.org Aportes de CinemaniaHD la pass es:cinemaniahdd.com

Películas relacionadas

  • El Justiciero (2014) Full 1080p Latino

    2014
    El Justiciero (2014) Full 1080p Latino

    4.0 2 h 12 min 2014

    Robert McCall, un antiguo agente de la CIA que lleva ahora una vida tranquila, abandona su retiro para...

    Director: Deirdre Horgan

    Género: Acción

    Actores: Yan Dron

  • James Bond Live and Let Die (1973) Full 1080p Latino

    1973
    James Bond Live and Let Die (1973) Full 1080p Latino

    0.0 2 h 1 min 1973

    En tan sólo veinticuatro horas, tres agentes del servicio secreto británico que investigaban una red...

    Director: Guy Hamilton

    Género: Acción

    Actores: Yaphet Kotto

Comentarios 0