The Guardians (2017) Webdl Sub Latino

10.523 vistas
1 estrella2 estrellas3 estrellas4 estrellas5 estrellas (6 votos, promedio: 3,00 de 5)
Cargando…

Información de The Guardians (2017) Webdl Sub Latino

Datos de la película

  • Calidad: WEBDL
  • Audio: Ruso AC3 5.1 Webdl RUSO
  • Subtitulos: Español Latino SRT - Ingles SRT
  • Resolución: 1904x788p
  • Formato: MKV
  • Codec: H.264
  • Encoder:
  • Mediainfo: Clic para Mostrar Datos Ver
  • The Guardians WEBDL Sub.mkv
    Format                      : Matroska
    Format version              : Version 4 / Version 2
    File size                   : 3.05 GiB
    Duration                    : 1 h 29 min
    Overall bit rate            : 4 908 kb/s
    Movie name                  : DPeliculasHDMega.ORG
    Encoded date                : UTC 2017-04-18 19:11:59
    Writing application         : mkvmerge v10.0.0 ('To Drown In You') 64bit
    Writing library             : libebml v1.3.4 + libmatroska v1.4.5
    Cover                       : Yes
    Attachments                 : small_cover.jpg / small_cover_land.jpg / cover.jpg / cover_land.jpg

    Video
    ID                          : 1
    Format                      : AVC
    Format/Info                 : Advanced Video Codec
    Format profile              : High@L4
    Format settings, CABAC      : Yes
    Format settings, ReFrames   : 5 frames
    Codec ID                    : V_MPEG4/ISO/AVC
    Duration                    : 1 h 29 min
    Bit rate                    : 4 522 kb/s
    Width                       : 1 908 pixels
    Height                      : 796 pixels
    Display aspect ratio        : 2.40:1
    Frame rate mode             : Constant
    Frame rate                  : 23.976 (24000/1001) FPS
    Color space                 : YUV
    Chroma subsampling          : 4:2:0
    Bit depth                   : 8 bits
    Scan type                   : Progressive
    Bits/(Pixel*Frame)          : 0.124
    Stream size                 : 2.81 GiB (92%)
    Title                       : The.Guardians.2017.RUSSIAN.1080p.WEB-DL.H264.DD5.1-FGT
    Language                    : Russian
    Default                     : Yes
    Forced                      : No
    Color range                 : Limited
    Color primaries             : BT.709
    Transfer characteristics    : BT.709
    Matrix coefficients         : BT.709

    Audio
    ID                          : 2
    Format                      : AC-3
    Format/Info                 : Audio Coding 3
    Format settings, Endianness : Big
    Codec ID                    : A_AC3
    Duration                    : 1 h 29 min
    Bit rate mode               : Constant
    Bit rate                    : 384 kb/s
    Channel(s)                  : 6 channels
    Channel positions           : Front: L C R, Side: L R, LFE
    Sampling rate               : 48.0 kHz
    Frame rate                  : 31.250 FPS (1536 spf)
    Bit depth                   : 16 bits
    Compression mode            : Lossy
    Stream size                 : 245 MiB (8%)
    Title                       : The.Guardians.2017.RUSSIAN.1080p.WEB-DL.H264.DD5.1-FGT
    Language                    : Russian
    Service kind                : Complete Main
    Default                     : Yes
    Forced                      : No

    Text #1
    ID                          : 3
    Format                      : UTF-8
    Codec ID                    : S_TEXT/UTF8
    Codec ID/Info               : UTF-8 Plain Text
    Duration                    : 1 h 20 min
    Bit rate                    : 35 b/s
    Count of elements           : 549
    Stream size                 : 20.9 KiB (0%)
    Language                    : Spanish
    Default                     : Yes
    Forced                      : No

    Text #2
    ID                          : 4
    Format                      : UTF-8
    Codec ID                    : S_TEXT/UTF8
    Codec ID/Info               : UTF-8 Plain Text
    Duration                    : 1 h 20 min
    Bit rate                    : 32 b/s
    Count of elements           : 569
    Stream size                 : 19.1 KiB (0%)
    Language                    : English
    Default                     : No
    Forced                      : No

    Menu
    00:00:00.000                : en:1
    00:04:04.000                : en:2
    00:14:55.000                : en:3
    00:26:28.000                : en:4
    00:37:32.000                : en:5
    00:49:11.000                : en:6
    01:00:32.000                : en:7
    01:12:11.000                : en:8
    01:22:33.000                : en:9

  • Peso: 3.05 GB

Sinopsis

Durante la Guerra Fría, una organización llamada “Patriot” ha creado un equipo de superhéroes, que incluye a miembros de diversas repúblicas soviéticas. Durante años, los héroes tenían que ocultar su identidad, pero en tiempos difíciles deben ser enviados de nuevo.

Ficha técnica

  • Titulo original: The Guardians
  • Fecha de lanzamiento: --2017
  • Director: Sarik Andreasyan
  • Género: Acción, Aventura
  • Puntuación: 3.0 6 votos
  • Duración:
    01h 29m

Video trailer de la película

Enlaces de descarga

Descargar The Guardians (2017) Webdl Sub Latino
Aportes de DPeliculasHDmega la pass es:dpeliculashdmega.org Aportes de CinemaniaHD la pass es:cinemaniahdd.com
Guardado en : Acción , Aventura

Películas relacionadas

  • Occupation (2018) WEBDL 1080p Subtitulada

    2018
    Occupation (2018) WEBDL 1080p Subtitulada

    0.0 1h 59m 2018

    El film se centra en un grupo de civiles que ven como su pequeño pueblo en Australia es aniquilado por...

    Director: Luke Sparke

    Género: Acción

    Actores: Temuera Morrison

  • El Justiciero (2014) Full 1080p Latino

    2014
    El Justiciero (2014) Full 1080p Latino

    4.0 2 h 12 min 2014

    Robert McCall, un antiguo agente de la CIA que lleva ahora una vida tranquila, abandona su retiro para...

    Director: Deirdre Horgan

    Género: Acción

    Actores: Yan Dron

  • James Bond Live and Let Die (1973) Full 1080p Latino

    1973
    James Bond Live and Let Die (1973) Full 1080p Latino

    0.0 2 h 1 min 1973

    En tan sólo veinticuatro horas, tres agentes del servicio secreto británico que investigaban una red...

    Director: Guy Hamilton

    Género: Acción

    Actores: Yaphet Kotto

Comentarios 10
  • segio - 24 julio, 2017

    links caidos

    • dpelis - 25 julio, 2017

      use otros servidores

  • max - 19 julio, 2017

    tienes idea cuando sale el bluray?

    • dpelis - 19 julio, 2017

      ya salio pero no latino

  • Cheveguerra - 19 abril, 2017

    Los subtitulos estan pesimos, tanto los que estan en español como los de ingles!!! … no hablo ruso, pero aun asi me doy cuenta que son una traduccion automatica … desafortunadamente no pude encontrar ningunos que estuvieran mejor, probablemente cuando pase un poco mas de tiempo se pueda encontrar una mejor version de ellos!

    Saludos

    • dpelis - 19 abril, 2017

      Muchas gracias por el comentario. Son los mejores que encontre, pero es encuentra entretenida.

      • Cheveguerra - 21 abril, 2017

        Yo tambien busque pero nada mejor! 🙁 de todas formas la pelicula si esta entretenida, la quisieron hacer como las de Marvel, hasta en el cachito del final a la mitad de los creditos insinuando una contunacion!! 😉

        • dpelis - 21 abril, 2017

          si estimado, esta genial pero el problema subtitulos pero a esperar
          Saludos

  • Ks - 18 abril, 2017

    Esto es la version china de Los guardianes de la galaxia xD!

    • jose luis - 19 abril, 2017

      Es la version Rusa, espero sea buena la peli .