The Edge of Seventeen (2016) 1080p Latino

1.968 vistas
1 estrella2 estrellas3 estrellas4 estrellas5 estrellas (1 votos, promedio: 5,00 de 5)
Cargando…

Información de The Edge of Seventeen (2016) 1080p Latino

Datos de la película

  • Calidad: 1080p
  • Audio: Español Latino AC3 5.1 DVD - Ingles AC3 5.1 BLURAY
  • Subtitulos: Español Latino SRT - Ingles SRT
  • Resolución: 1920x1036p
  • Formato: MKV
  • Codec: H.264
  • Encoder: Dpelis
  • Mediainfo: Clic para Mostrar Datos Ver
  • The.edge.of.seventeen.2016.1080p.LATINO.mkv
    Format                      : Matroska
    Format version              : Version 4 / Version 2
    File size                   : 3.13 GiB
    Duration                    : 1 h 44 min
    Overall bit rate            : 4 272 kb/s
    Movie name                  : DPeliculasHDMega,ORG
    Encoded date                : UTC 2017-06-08 05:52:47 / UTC 2017-06-08T04:39:12Z
    Writing application         : mkvmerge v10.0.0 ('To Drown In You') 64bit
    Writing library             : libebml v1.3.4 + libmatroska v1.4.5 / Lavf57.7.2

    Video
    ID                          : 1
    Format                      : AVC
    Format/Info                 : Advanced Video Codec
    Format profile              : High@L4.1
    Format settings, CABAC      : Yes
    Format settings, ReFrames   : 4 frames
    Codec ID                    : V_MPEG4/ISO/AVC
    Duration                    : 1 h 44 min
    Bit rate                    : 3 500 kb/s
    Width                       : 1 920 pixels
    Height                      : 1 036 pixels
    Display aspect ratio        : 1.85:1
    Frame rate mode             : Constant
    Frame rate                  : 23.976 (24000/1001) FPS
    Color space                 : YUV
    Chroma subsampling          : 4:2:0
    Bit depth                   : 8 bits
    Scan type                   : Progressive
    Bits/(Pixel*Frame)          : 0.073
    Stream size                 : 2.46 GiB (79%)
    Writing library             : x264 core 148 r2708 86b7198
    Encoding settings           : cabac=1 / ref=3 / deblock=1:0:0 / analyse=0x3:0x113 / me=hex / subme=7 / psy=1 / psy_rd=1.00:0.00 / mixed_ref=1 / me_range=16 / chroma_me=1 / trellis=1 / 8x8dct=1 / cqm=0 / deadzone=21,11 / fast_pskip=1 / chroma_qp_offset=-2 / threads=12 / lookahead_threads=2 / sliced_threads=0 / nr=0 / decimate=1 / interlaced=0 / bluray_compat=0 / constrained_intra=0 / bframes=3 / b_pyramid=2 / b_adapt=1 / b_bias=0 / direct=1 / weightb=1 / open_gop=0 / weightp=2 / keyint=240 / keyint_min=24 / scenecut=40 / intra_refresh=0 / rc_lookahead=40 / rc=abr / mbtree=1 / bitrate=3500 / ratetol=1.0 / qcomp=0.60 / qpmin=0 / qpmax=69 / qpstep=4 / vbv_maxrate=62500 / vbv_bufsize=78125 / nal_hrd=none / filler=0 / ip_ratio=1.40 / aq=1:1.00
    Default                     : Yes
    Forced                      : No
    Color range                 : Limited
    Color primaries             : BT.709
    Transfer characteristics    : BT.709
    Matrix coefficients         : BT.709
    Statistics Tags Issue       : mkvmerge v10.0.0 ('To Drown In You') 64bit 2017-06-08 05:52:47 / mkvmerge v10.0.0 ('To Drown In You') 64bit 2017-06-08 05:52:47 / UTC 2017-06-08T04:39:12Z
    FromStats_BitRate           : 3437625
    FromStats_Duration          : 01:44:55.456000000
    FromStats_FrameCount        : 150940
    FromStats_StreamSize        : 2705177871

    Audio #1
    ID                          : 2
    Format                      : AC-3
    Format/Info                 : Audio Coding 3
    Format settings, Endianness : Big
    Codec ID                    : A_AC3
    Duration                    : 1 h 44 min
    Bit rate mode               : Constant
    Bit rate                    : 448 kb/s
    Channel(s)                  : 6 channels
    Channel positions           : Front: L C R, Side: L R, LFE
    Sampling rate               : 48.0 kHz
    Frame rate                  : 31.250 FPS (1536 spf)
    Bit depth                   : 16 bits
    Compression mode            : Lossy
    Delay relative to video     : -5 ms
    Stream size                 : 336 MiB (10%)
    Language                    : Spanish
    Service kind                : Complete Main
    Default                     : Yes
    Forced                      : No
    Statistics Tags Issue       : mkvmerge v10.0.0 ('To Drown In You') 64bit 2017-06-08 05:52:47 / mkvmerge v10.0.0 ('To Drown In You') 64bit 2017-06-08 05:52:47 / UTC 2017-06-08T04:39:12Z
    FromStats_BitRate           : 448000
    FromStats_Duration          : 01:44:55.008000000
    FromStats_FrameCount        : 196719
    FromStats_StreamSize        : 352520448

    Audio #2
    ID                          : 3
    Format                      : AC-3
    Format/Info                 : Audio Coding 3
    Format settings, Endianness : Big
    Codec ID                    : A_AC3
    Duration                    : 1 h 44 min
    Bit rate mode               : Constant
    Bit rate                    : 384 kb/s
    Channel(s)                  : 6 channels
    Channel positions           : Front: L C R, Side: L R, LFE
    Sampling rate               : 48.0 kHz
    Frame rate                  : 31.250 FPS (1536 spf)
    Bit depth                   : 16 bits
    Compression mode            : Lossy
    Delay relative to video     : -5 ms
    Stream size                 : 288 MiB (9%)
    Title                       : Surround
    Language                    : English
    Service kind                : Complete Main
    Default                     : No
    Forced                      : No
    Statistics Tags Issue       : mkvmerge v10.0.0 ('To Drown In You') 64bit 2017-06-08 05:52:47 / mkvmerge v10.0.0 ('To Drown In You') 64bit 2017-06-08 05:52:47 / UTC 2017-06-08T04:39:12Z
    FromStats_BitRate           : 384000
    FromStats_Duration          : 01:44:55.488000000
    FromStats_FrameCount        : 196734
    FromStats_StreamSize        : 302183424

    Text #1
    ID                          : 4
    Format                      : UTF-8
    Codec ID                    : S_TEXT/UTF8
    Codec ID/Info               : UTF-8 Plain Text
    Language                    : Spanish
    Default                     : Yes
    Forced                      : No
    Statistics Tags Issue       : mkvmerge v10.0.0 ('To Drown In You') 64bit 2017-06-08 05:52:47 / mkvmerge v10.0.0 ('To Drown In You') 64bit 2017-06-08 05:52:47 / UTC 2017-06-08T04:39:12Z
    FromStats_BitRate           : 55
    FromStats_Duration          : 01:36:55.790000000
    FromStats_FrameCount        : 1331
    FromStats_StreamSize        : 40232

    Text #2
    ID                          : 5
    Format                      : UTF-8
    Codec ID                    : S_TEXT/UTF8
    Codec ID/Info               : UTF-8 Plain Text
    Language                    : English
    Default                     : No
    Forced                      : No
    Statistics Tags Issue       : mkvmerge v10.0.0 ('To Drown In You') 64bit 2017-06-08 05:52:47 / mkvmerge v10.0.0 ('To Drown In You') 64bit 2017-06-08 05:52:47 / UTC 2017-06-08T04:39:12Z
    FromStats_BitRate           : 57
    FromStats_Duration          : 01:38:46.610000000
    FromStats_FrameCount        : 1336
    FromStats_StreamSize        : 42283

    Menu
    00:00:00.000                : :Chapter 1
    00:03:47.018                : :Chapter 2
    00:07:41.419                : :Chapter 3
    00:10:02.644                : :Chapter 4
    00:18:46.292                : :Chapter 5
    00:23:21.483                : :Chapter 6
    00:26:42.434                : :Chapter 7
    00:32:06.716                : :Chapter 8
    00:36:51.501                : :Chapter 9
    00:43:17.553                : :Chapter 10
    00:48:21.190                : :Chapter 11
    00:53:15.192                : :Chapter 12
    01:00:29.918                : :Chapter 13
    01:07:55.321                : :Chapter 14
    01:12:46.988                : :Chapter 15
    01:14:56.617                : :Chapter 16
    01:21:48.779                : :Chapter 17
    01:26:20.300                : :Chapter 18
    01:30:59.162                : :Chapter 19
    01:38:58.224                : :Chapter 20

  • Peso: 3.13 GB

Sinopsis

Nadine y Krista son dos adolescentes que van al instituto, dos mejores amigas muy unidas… al menos hasta que Nadine descubre que Krista está saliendo en secreto con su hermano mayor, a quien no soporta.

Kelly Fremon (Recién graduada) escribe y dirige esta comedia, que está protagonizada por Hailee Steinfeld (Barely Lethal), Haley Lu Richardson (The Bronze), Blake Jenner (Everybody Wants Some!!), Woody Harrelson (Triple 9), Kyra Sedgwick (la serie Brooklyn Nine-Nine) y Katie Stuart (Los 100).

Ficha técnica

  • Titulo original: The Edge of Seventeen
  • Fecha de lanzamiento: 18-11-2016 (United States of America)
  • Director: Kelly Fremon Craig
  • Género: Comedia, Drama
  • Puntuación: 5.0 1 votos
  • Duración:
    1h 44m

Video trailer de la película

Enlaces de descarga

Rip de Bluray

Descargar The Edge of Seventeen (2016) 1080p Latino




Aportes de DPeliculasHDmega la pass es:dpeliculashdmega.org Aportes de CinemaniaHD la pass es:cinemaniahdd.com
Guardado en : Comedia , Drama

Películas relacionadas

  • Sicario (2015) Full 1080p Latino

    2015
    Sicario (2015) Full 1080p Latino

    5.0 2h 1m 2015

    En la zona fronteriza que se extiende entre Estados Unidos y México la joven Kate Macer, una idealista...

    Director: Judi Townsend

    Género: Acción

    Actores: Victor Garber

  • Fahrenheit 451 (2018) Full 1080p Latino

    2018
    Fahrenheit 451 (2018) Full 1080p Latino

    5.0 1h 36m 2018

    Michael B. Jordan y Michael Shannon protagonizan esta adaptación de HBO de la clásica novela distópica...

    Director: Ramin Bahrani

    Género: Ciencia ficción

    Actores: Tim Post

Comentarios 2
  • Alexis - 13 junio, 2017

    Amigo … la peli tiene audio desfasado :/ !

    • dpelis - 14 junio, 2017

      que minuto para verificar