Thank You for Your Service (2017) 1080p Latino

880 vistas
1 estrella2 estrellas3 estrellas4 estrellas5 estrellas (Ninguna valoración todavía)
Cargando…

Información de Thank You for Your Service (2017) 1080p Latino

Datos de la película

  • Calidad: 1080p
  • Audio: Español Latino AC3 5.1 BLURAY - Ingles AC3 5.1 BLURAY
  • Subtitulos: Español Latino SRT- FORZADOS SRT
  • Resolución: 1920X808p
  • Formato: MKV
  • Codec: H.264
  • Encoder: Dracarys
  • Mediainfo: Clic para Mostrar Datos Ver
  • Format                                   : Matroska
    Format version                           : Version 4 / Version 2
    File size                                : 3.62 GiB
    Duration                                 : 1 h 48 min
    Overall bit rate                         : 4 760 kb/s
    Movie name                               : CinemaniaHDD.com
    Encoded date                             : UTC 2018-01-11 00:41:17 / UTC 2018-01-10T23:08:11Z
    Writing application                      : mkvmerge v15.0.0 ('Duel with the Devil') 64-bit
    Writing library                          : libebml v1.3.5 + libmatroska v1.4.5 / Lavf57.7.2

    Video
    ID                                       : 1
    Format                                   : AVC
    Format/Info                              : Advanced Video Codec
    Format profile                           : High@L4.1
    Format settings                          : CABAC / 5 Ref Frames
    Format settings, CABAC                   : Yes
    Format settings, RefFrames               : 5 frames
    Codec ID                                 : V_MPEG4/ISO/AVC
    Duration                                 : 1 h 48 min
    Bit rate                                 : 3 500 kb/s
    Width                                    : 1 920 pixels
    Height                                   : 808 pixels
    Display aspect ratio                     : 2.40:1
    Frame rate mode                          : Constant
    Frame rate                               : 23.976 (24000/1001) FPS
    Color space                              : YUV
    Chroma subsampling                       : 4:2:0
    Bit depth                                : 8 bits
    Scan type                                : Progressive
    Bits/(Pixel*Frame)                       : 0.094
    Stream size                              : 2.58 GiB (71%)
    Title                                    : Thank You for Your Service (2017) 1080p Latino
    Writing library                          : x264 core 148 r2708 86b7198
    Encoding settings                        : cabac=1 / ref=5 / deblock=1:0:0 / analyse=0x3:0x113 / me=umh / subme=8 / psy=1 / psy_rd=1.00:0.00 / mixed_ref=1 / me_range=16 / chroma_me=1 / trellis=1 / 8x8dct=1 / cqm=0 / deadzone=21,11 / fast_pskip=1 / chroma_qp_offset=-2 / threads=25 / lookahead_threads=4 / sliced_threads=0 / nr=0 / decimate=1 / interlaced=0 / bluray_compat=0 / constrained_intra=0 / bframes=3 / b_pyramid=2 / b_adapt=2 / b_bias=0 / direct=3 / weightb=1 / open_gop=0 / weightp=2 / keyint=240 / keyint_min=24 / scenecut=40 / intra_refresh=0 / rc_lookahead=50 / rc=abr / mbtree=1 / bitrate=3500 / ratetol=1.0 / qcomp=0.60 / qpmin=0 / qpmax=69 / qpstep=4 / vbv_maxrate=62500 / vbv_bufsize=78125 / nal_hrd=none / filler=0 / ip_ratio=1.40 / aq=1:1.00
    Language                                 : English
    Default                                  : Yes
    Forced                                   : No
    Color range                              : Limited
    Color primaries                          : BT.709
    Transfer characteristics                 : BT.709
    Matrix coefficients                      : BT.709
    Statistics Tags Issue                    : mkvmerge v15.0.0 ('Duel with the Devil') 64-bit 2018-01-11 00:41:17 / mkvmerge v15.0.0 ('Duel with the Devil') 64-bit 2018-01-11 00:41:17 / UTC 2018-01-10T23:08:11Z
    FromStats_BitRate                        : 3477454
    FromStats_Duration                       : 01:48:59.867000000
    FromStats_FrameCount                     : 156800
    FromStats_StreamSize                     : 2842760860

    Audio #1
    ID                                       : 2
    Format                                   : AC-3
    Format/Info                              : Audio Coding 3
    Format settings, Endianness              : Big
    Codec ID                                 : A_AC3
    Duration                                 : 1 h 48 min
    Bit rate mode                            : Constant
    Bit rate                                 : 640 kb/s
    Channel(s)                               : 6 channels
    Channel positions                        : Front: L C R, Side: L R, LFE
    Sampling rate                            : 48.0 kHz
    Frame rate                               : 31.250 FPS (1536 SPF)
    Bit depth                                : 16 bits
    Compression mode                         : Lossy
    Delay relative to video                  : -5 ms
    Stream size                              : 499 MiB (13%)
    Language                                 : Spanish
    Service kind                             : Complete Main
    Default                                  : Yes
    Forced                                   : No
    Statistics Tags Issue                    : mkvmerge v15.0.0 ('Duel with the Devil') 64-bit 2018-01-11 00:41:17 / mkvmerge v15.0.0 ('Duel with the Devil') 64-bit 2018-01-11 00:41:17 / UTC 2018-01-10T23:08:11Z
    FromStats_BitRate                        : 640000
    FromStats_Duration                       : 01:48:59.904000000
    FromStats_FrameCount                     : 204372
    FromStats_StreamSize                     : 523192320

    Audio #2
    ID                                       : 3
    Format                                   : AC-3
    Format/Info                              : Audio Coding 3
    Format settings, Endianness              : Big
    Codec ID                                 : A_AC3
    Duration                                 : 1 h 48 min
    Bit rate mode                            : Constant
    Bit rate                                 : 640 kb/s
    Channel(s)                               : 6 channels
    Channel positions                        : Front: L C R, Side: L R, LFE
    Sampling rate                            : 48.0 kHz
    Frame rate                               : 31.250 FPS (1536 SPF)
    Bit depth                                : 16 bits
    Compression mode                         : Lossy
    Delay relative to video                  : -5 ms
    Stream size                              : 499 MiB (13%)
    Language                                 : English
    Service kind                             : Complete Main
    Default                                  : No
    Forced                                   : No
    Statistics Tags Issue                    : mkvmerge v15.0.0 ('Duel with the Devil') 64-bit 2018-01-11 00:41:17 / mkvmerge v15.0.0 ('Duel with the Devil') 64-bit 2018-01-11 00:41:17 / UTC 2018-01-10T23:08:11Z
    FromStats_BitRate                        : 640000
    FromStats_Duration                       : 01:48:59.840000000
    FromStats_FrameCount                     : 204370
    FromStats_StreamSize                     : 523187200

    Text #1
    ID                                       : 4
    Format                                   : UTF-8
    Codec ID                                 : S_TEXT/UTF8
    Codec ID/Info                            : UTF-8 Plain Text
    Title                                    : Forzados
    Language                                 : Spanish
    Default                                  : Yes
    Forced                                   : No
    Statistics Tags Issue                    : mkvmerge v15.0.0 ('Duel with the Devil') 64-bit 2018-01-11 00:41:17 / mkvmerge v15.0.0 ('Duel with the Devil') 64-bit 2018-01-11 00:41:17 / UTC 2018-01-10T23:08:11Z
    FromStats_BitRate                        : 0
    FromStats_Duration                       : 01:19:04.022000000
    FromStats_FrameCount                     : 15
    FromStats_StreamSize                     : 430

    Text #2
    ID                                       : 5
    Format                                   : UTF-8
    Codec ID                                 : S_TEXT/UTF8
    Codec ID/Info                            : UTF-8 Plain Text
    Language                                 : Spanish
    Default                                  : No
    Forced                                   : No
    Statistics Tags Issue                    : mkvmerge v15.0.0 ('Duel with the Devil') 64-bit 2018-01-11 00:41:17 / mkvmerge v15.0.0 ('Duel with the Devil') 64-bit 2018-01-11 00:41:17 / UTC 2018-01-10T23:08:11Z
    FromStats_BitRate                        : 47
    FromStats_Duration                       : 01:41:20.243000000
    FromStats_FrameCount                     : 1248
    FromStats_StreamSize                     : 36043

     

  • Peso: 3.62 GiB

Sinopsis

Este drama narra la historia de unos veteranos de guerra que, al regresar del campo de batalla, intentarán integrarse de nuevo en la sociedad. Pero adaptarse a la vida civil no será fácil, ya que tendrán que hacer frente a los terribles recuerdos de los horrores de la guerra, que aun lejos del frente amenazan con destruirlos.

Ficha técnica

  • Titulo original: Thank You for Your Service
  • Fecha de lanzamiento: 26-10-2017 (United States of America)
  • Director: Jason Hall, Scott Peterson
  • Género: Drama, Guerra
  • Puntuación: 0.0 0 votos
  • Duración:
    1 h 48 min

Video trailer de la película

Enlaces de descarga

Rip de Bluray

Descargar Thank You for Your Service (2017) 1080p Latino




Aportes de DPeliculasHDmega la pass es:dpeliculashdmega.org Aportes de CinemaniaHD la pass es:cinemaniahdd.com
Guardado en : Drama , Guerra

Películas relacionadas

  • Tully (2018) 1080p Latino

    2018
    Tully (2018) 1080p Latino

    0.0 1 h 35 min 2018

    La historia de una mujer con tres hijos que, incapaz de lidiar con su bebé recién nacido, contrata...

    Director: Jason Reitman

    Género: Comedia

    Actores: Stormy Ent

  • Si solo pudiera imaginar (2018) Full 1080p Latino

    2018
    Si solo pudiera imaginar (2018) Full 1080p Latino

    4.8 1 h 50 min 2018

    La historia real de la aclamada canción "I Can Only Imagine", la canción cristiana contemporánea más...

    Director: Jon Erwin

    Género: Drama

    Actores: Trace Adkins

  • Tully (2018) WEB-DL 1080p Latino

    2018
    Tully (2018) WEB-DL 1080p Latino

    5.0 1h 36m 2018

    La historia de una mujer con tres hijos que, incapaz de lidiar con su bebé recién nacido, contrata...

    Director: Jason Reitman

    Género: Comedia

    Actores: Stormy Ent

  • Los Huerfanos (2017) WEBDL 1080p Latino

    2017
    Los Huerfanos (2017) WEBDL 1080p Latino

    5.0 1h 47m 2017

    Después de la muerte de la madre de Rini, algo perturba a su familia. Remake del film indonesio "Satan's...

    Director: Rieviena Yulieta

    Género: Drama

    Actores: Tara Basro

  • Un lugar en silencio (2018) 4K HDR Latino

    2018
    Un lugar en silencio (2018) 4K HDR Latino

    5.0 1 h 30 min 2018

    Evelyn y Lee Abbott son una pareja con tres hijos que vive una granja aislada de toda civilización al...

    Director: John R. Saunders

    Género: 4K HDR

    Actores: Rhoda Pell

Comentarios 2
  • Gerrard - 11 enero, 2018

    Se ve muy interesante la película… la subirán en caratula gris o esta sera la ultima versión?

    • Dpelis2 - 11 enero, 2018

      en unos dias mas se subira en portada gris.