Terror a 47 metros (2017) Full 1080p Latino

2.101 vistas
1 estrella2 estrellas3 estrellas4 estrellas5 estrellas (2 votos, promedio: 4,00 de 5)
Cargando…

Información de Terror a 47 metros (2017) Full 1080p Latino

Datos de la película

  • Calidad: Full 1080p
  • Audio: Español Latino AC3 5.1 BLURAY - Ingles DTS 5.1 BLURAY
  • Subtitulos: Español Latino PGS - Ingles PGS
  • Resolución: 1920x1080p
  • Formato: MKV
  • Codec: H.264
  • Encoder: Dracarys
  • Mediainfo: Clic para Mostrar Datos Ver
  • Format                                   : Matroska
    Format version                           : Version 4 / Version 2
    File size                                : 5.25 GiB
    Duration                                 : 1 h 29 min
    Overall bit rate                         : 8 424 kb/s
    Movie name                               : CinemaniaHDD.com
    Encoded date                             : UTC 2018-05-20 05:06:22 / UTC 2018-05-17T23:03:06Z
    Writing application                      : mkvmerge v15.0.0 ('Duel with the Devil') 64-bit
    Writing library                          : libebml v1.3.5 + libmatroska v1.4.5 / Lavf57.7.2

    Video
    ID                                       : 1
    Format                                   : AVC
    Format/Info                              : Advanced Video Codec
    Format profile                           : High@L4.1
    Format settings                          : CABAC / 4 Ref Frames
    Format settings, CABAC                   : Yes
    Format settings, RefFrames               : 4 frames
    Codec ID                                 : V_MPEG4/ISO/AVC
    Duration                                 : 1 h 29 min
    Bit rate                                 : 6 300 kb/s
    Width                                    : 1 920 pixels
    Height                                   : 1 080 pixels
    Display aspect ratio                     : 16:9
    Frame rate mode                          : Constant
    Frame rate                               : 23.976 (24000/1001) FPS
    Color space                              : YUV
    Chroma subsampling                       : 4:2:0
    Bit depth                                : 8 bits
    Scan type                                : Progressive
    Bits/(Pixel*Frame)                       : 0.127
    Stream size                              : 3.93 GiB (75%)
    Title                                    : Terror a 47 metros (2017) Full 1080p Latino
    Writing library                          : x264 core 148 r2708 86b7198
    Encoding settings                        : cabac=1 / ref=4 / deblock=1:0:0 / analyse=0x3:0x133 / me=esa / subme=9 / psy=1 / psy_rd=1.00:0.00 / mixed_ref=1 / me_range=16 / chroma_me=1 / trellis=2 / 8x8dct=1 / cqm=0 / deadzone=21,11 / fast_pskip=1 / chroma_qp_offset=-2 / threads=34 / lookahead_threads=2 / sliced_threads=0 / nr=0 / decimate=1 / interlaced=0 / bluray_compat=0 / constrained_intra=0 / bframes=3 / b_pyramid=2 / b_adapt=2 / b_bias=0 / direct=3 / weightb=1 / open_gop=0 / weightp=2 / keyint=240 / keyint_min=24 / scenecut=40 / intra_refresh=0 / rc_lookahead=60 / rc=crf / mbtree=1 / crf=20.0 / qcomp=0.60 / qpmin=0 / qpmax=69 / qpstep=4 / vbv_maxrate=62500 / vbv_bufsize=78125 / crf_max=0.0 / nal_hrd=none / filler=0 / ip_ratio=1.40 / aq=1:1.00
    Language                                 : English
    Default                                  : Yes
    Forced                                   : No
    Color range                              : Limited
    Color primaries                          : BT.709
    Transfer characteristics                 : BT.709
    Matrix coefficients                      : BT.709
    Statistics Tags Issue                    : mkvmerge v15.0.0 ('Duel with the Devil') 64-bit 2018-05-20 05:06:22 / mkvmerge v15.0.0 ('Duel with the Devil') 64-bit 2018-05-20 05:06:22 / UTC 2018-05-17T23:03:06Z
    FromStats_BitRate                        : 6435155
    FromStats_Duration                       : 01:29:16.393000000
    FromStats_FrameCount                     : 128425
    FromStats_StreamSize                     : 4308652989

    Audio #1
    ID                                       : 2
    Format                                   : AC-3
    Format/Info                              : Audio Coding 3
    Format settings, Endianness              : Big
    Codec ID                                 : A_AC3
    Duration                                 : 1 h 29 min
    Bit rate mode                            : Constant
    Bit rate                                 : 448 kb/s
    Channel(s)                               : 6 channels
    Channel positions                        : Front: L C R, Side: L R, LFE
    Sampling rate                            : 48.0 kHz
    Frame rate                               : 31.250 FPS (1536 SPF)
    Bit depth                                : 16 bits
    Compression mode                         : Lossy
    Stream size                              : 286 MiB (5%)
    Language                                 : Spanish
    Service kind                             : Complete Main
    Default                                  : Yes
    Forced                                   : No
    Statistics Tags Issue                    : mkvmerge v15.0.0 ('Duel with the Devil') 64-bit 2018-05-20 05:06:22 / mkvmerge v15.0.0 ('Duel with the Devil') 64-bit 2018-05-20 05:06:22 / UTC 2018-05-17T23:03:06Z
    FromStats_BitRate                        : 448000
    FromStats_Duration                       : 01:29:16.384000000
    FromStats_FrameCount                     : 167387
    FromStats_StreamSize                     : 299957504

    Audio #2
    ID                                       : 3
    Format                                   : DTS
    Format/Info                              : Digital Theater Systems
    Mode                                     : 16
    Format settings, Endianness              : Big
    Codec ID                                 : A_DTS
    Duration                                 : 1 h 29 min
    Bit rate mode                            : Constant
    Bit rate                                 : 1 509 kb/s
    Channel(s)                               : 6 channels
    Channel positions                        : Front: L C R, Side: L R, LFE
    Sampling rate                            : 48.0 kHz
    Frame rate                               : 93.750 FPS (512 SPF)
    Bit depth                                : 24 bits
    Compression mode                         : Lossy
    Delay relative to video                  : 53 ms
    Stream size                              : 964 MiB (18%)
    Language                                 : English
    Default                                  : No
    Forced                                   : No
    Statistics Tags Issue                    : mkvmerge v15.0.0 ('Duel with the Devil') 64-bit 2018-05-20 05:06:22 / mkvmerge v15.0.0 ('Duel with the Devil') 64-bit 2018-05-20 05:06:22 / UTC 2018-05-17T23:03:06Z
    FromStats_BitRate                        : 1508999
    FromStats_Duration                       : 01:29:16.331000000
    FromStats_FrameCount                     : 502156
    FromStats_StreamSize                     : 1010337872

    Text #1
    ID                                       : 4
    Format                                   : PGS
    Muxing mode                              : zlib
    Codec ID                                 : S_HDMV/PGS
    Codec ID/Info                            : Picture based subtitle format used on BDs/HD-DVDs
    Language                                 : English
    Default                                  : No
    Forced                                   : No
    Statistics Tags Issue                    : mkvmerge v15.0.0 ('Duel with the Devil') 64-bit 2018-05-20 05:06:22 / mkvmerge v15.0.0 ('Duel with the Devil') 64-bit 2018-05-20 05:06:22 / UTC 2018-05-17T23:03:06Z
    FromStats_BitRate                        : 31598
    FromStats_Duration                       : 01:28:17.000000000
    FromStats_FrameCount                     : 2264
    FromStats_StreamSize                     : 20921842

    Text #2
    ID                                       : 5
    Format                                   : PGS
    Muxing mode                              : zlib
    Codec ID                                 : S_HDMV/PGS
    Codec ID/Info                            : Picture based subtitle format used on BDs/HD-DVDs
    Language                                 : Spanish
    Default                                  : No
    Forced                                   : No
    Statistics Tags Issue                    : mkvmerge v15.0.0 ('Duel with the Devil') 64-bit 2018-05-20 05:06:22 / mkvmerge v15.0.0 ('Duel with the Devil') 64-bit 2018-05-20 05:06:22 / UTC 2018-05-17T23:03:06Z
    FromStats_BitRate                        : 26712
    FromStats_Duration                       : 01:19:32.059000000
    FromStats_FrameCount                     : 1678
    FromStats_StreamSize                     : 15934232

    Menu
    00:00:00.000                             : :Chapter 1
    00:06:36.229                             : :Chapter 2
    00:10:12.946                             : :Chapter 3
    00:16:08.468                             : :Chapter 4
    00:20:51.333                             : :Chapter 5
    00:27:36.530                             : :Chapter 6
    00:31:37.771                             : :Chapter 7
    00:36:18.968                             : :Chapter 8
    00:42:00.685                             : :Chapter 9
    00:46:39.005                             : :Chapter 10
    00:52:06.415                             : :Chapter 11
    00:57:23.941                             : :Chapter 12
    01:02:45.553                             : :Chapter 13
    01:07:36.719                             : :Chapter 14
    01:13:12.847                             : :Chapter 15
    01:18:09.935                             : :Chapter 16

  • Peso: 5.25 GiB

Sinopsis

Durante una inmersión, dos hermanas de vacaciones en México se quedan atrapadas en una jaula de avistamiento de tiburones, con el oxígeno agotándose y rodeadas de peligrosos tiburones blancos. Sin ayuda en la superficie, sin ayuda bajo la superficie.

Ficha técnica

Video trailer de la película

Enlaces de descarga

Rip de Bluray

Descargar Terror a 47 metros (2017) Full 1080p Latino




Aportes de DPeliculasHDmega la pass es:dpeliculashdmega.org Aportes de CinemaniaHD la pass es:cinemaniahdd.com

Películas relacionadas

Comentarios 1
  • ocpgaiden - 20 mayo, 2018

    excelente pelicula, saludos y gracias por la pelicula