Tan fuerte y tan cerca (2011) Full 1080p Latino | CinemaniaHD - Descargar Peliculas 1080p Mega Google Drive

Tan fuerte y tan cerca (2011) Full 1080p Latino

1.168 vistas
1 estrella2 estrellas3 estrellas4 estrellas5 estrellas (3 votos, promedio: 5,00 de 5)
Cargando…

Información de Tan fuerte y tan cerca (2011) Full 1080p Latino

Datos de la película

  • Calidad: Full 1080p
  • Audio: Español Latino AC3 5.1 BLURAY - Ingles DTS 5.1 BLURAY
  • Subtitulos: Español Latino PGS - Ingles PGS
  • Resolución: 1920x1080p
  • Formato: MKV
  • Codec: H.264
  • Encoder: Dracarys
  • Mediainfo: Clic para Mostrar Datos Ver
  • Format                                   : Matroska
    Format version                           : Version 4 / Version 2
    File size                                : 5.06 GiB
    Duration                                 : 2 h 9 min
    Overall bit rate                         : 5 590 kb/s
    Movie name                               : CinemaniaHDD.com
    Encoded date                             : UTC 2018-03-31 05:00:07 / UTC 2018-03-31T02:06:19Z
    Writing application                      : mkvmerge v15.0.0 ('Duel with the Devil') 64-bit
    Writing library                          : libebml v1.3.5 + libmatroska v1.4.5 / Lavf57.7.2

    Video
    ID                                       : 1
    Format                                   : AVC
    Format/Info                              : Advanced Video Codec
    Format profile                           : High@L4.1
    Format settings                          : CABAC / 4 Ref Frames
    Format settings, CABAC                   : Yes
    Format settings, RefFrames               : 4 frames
    Codec ID                                 : V_MPEG4/ISO/AVC
    Duration                                 : 2 h 9 min
    Bit rate                                 : 3 330 kb/s
    Width                                    : 1 920 pixels
    Height                                   : 1 080 pixels
    Display aspect ratio                     : 16:9
    Frame rate mode                          : Constant
    Frame rate                               : 23.976 (24000/1001) FPS
    Color space                              : YUV
    Chroma subsampling                       : 4:2:0
    Bit depth                                : 8 bits
    Scan type                                : Progressive
    Bits/(Pixel*Frame)                       : 0.067
    Stream size                              : 3.01 GiB (60%)
    Title                                    : Tan fuerte y tan cerca (2011) Full 1080p Latino
    Writing library                          : x264 core 148 r2708 86b7198
    Encoding settings                        : cabac=1 / ref=4 / deblock=1:0:0 / analyse=0x3:0x133 / me=esa / subme=9 / psy=1 / psy_rd=1.00:0.00 / mixed_ref=1 / me_range=16 / chroma_me=1 / trellis=2 / 8x8dct=1 / cqm=0 / deadzone=21,11 / fast_pskip=1 / chroma_qp_offset=-2 / threads=34 / lookahead_threads=2 / sliced_threads=0 / nr=0 / decimate=1 / interlaced=0 / bluray_compat=0 / constrained_intra=0 / bframes=3 / b_pyramid=2 / b_adapt=2 / b_bias=0 / direct=3 / weightb=1 / open_gop=0 / weightp=2 / keyint=240 / keyint_min=24 / scenecut=40 / intra_refresh=0 / rc_lookahead=60 / rc=crf / mbtree=1 / crf=20.0 / qcomp=0.60 / qpmin=0 / qpmax=69 / qpstep=4 / vbv_maxrate=62500 / vbv_bufsize=78125 / crf_max=0.0 / nal_hrd=none / filler=0 / ip_ratio=1.40 / aq=1:1.00
    Language                                 : English
    Default                                  : Yes
    Forced                                   : No
    Color range                              : Limited
    Color primaries                          : BT.709
    Transfer characteristics                 : BT.709
    Matrix coefficients                      : BT.709
    Statistics Tags Issue                    : mkvmerge v15.0.0 ('Duel with the Devil') 64-bit 2018-03-31 05:00:07 / mkvmerge v15.0.0 ('Duel with the Devil') 64-bit 2018-03-31 05:00:07 / UTC 2018-03-31T02:06:19Z
    FromStats_BitRate                        : 3412163
    FromStats_Duration                       : 02:09:28.761000000
    FromStats_FrameCount                     : 186264
    FromStats_StreamSize                     : 3313535212

    Audio #1
    ID                                       : 2
    Format                                   : AC-3
    Format/Info                              : Audio Coding 3
    Format settings, Endianness              : Big
    Codec ID                                 : A_AC3
    Duration                                 : 2 h 9 min
    Bit rate mode                            : Constant
    Bit rate                                 : 640 kb/s
    Channel(s)                               : 6 channels
    Channel positions                        : Front: L C R, Side: L R, LFE
    Sampling rate                            : 48.0 kHz
    Frame rate                               : 31.250 FPS (1536 SPF)
    Bit depth                                : 16 bits
    Compression mode                         : Lossy
    Stream size                              : 593 MiB (11%)
    Language                                 : Spanish
    Service kind                             : Complete Main
    Default                                  : Yes
    Forced                                   : No
    Statistics Tags Issue                    : mkvmerge v15.0.0 ('Duel with the Devil') 64-bit 2018-03-31 05:00:07 / mkvmerge v15.0.0 ('Duel with the Devil') 64-bit 2018-03-31 05:00:07 / UTC 2018-03-31T02:06:19Z
    FromStats_BitRate                        : 640000
    FromStats_Duration                       : 02:09:28.832000000
    FromStats_FrameCount                     : 242776
    FromStats_StreamSize                     : 621506560

    Audio #2
    ID                                       : 3
    Format                                   : DTS
    Format/Info                              : Digital Theater Systems
    Mode                                     : 16
    Format settings, Endianness              : Big
    Codec ID                                 : A_DTS
    Duration                                 : 2 h 9 min
    Bit rate mode                            : Constant
    Bit rate                                 : 1 509 kb/s
    Channel(s)                               : 6 channels
    Channel positions                        : Front: L C R, Side: L R, LFE
    Sampling rate                            : 48.0 kHz
    Frame rate                               : 93.750 FPS (512 SPF)
    Bit depth                                : 24 bits
    Compression mode                         : Lossy
    Stream size                              : 1.36 GiB (27%)
    Language                                 : English
    Default                                  : No
    Forced                                   : No
    Statistics Tags Issue                    : mkvmerge v15.0.0 ('Duel with the Devil') 64-bit 2018-03-31 05:00:07 / mkvmerge v15.0.0 ('Duel with the Devil') 64-bit 2018-03-31 05:00:07 / UTC 2018-03-31T02:06:19Z
    FromStats_BitRate                        : 1509000
    FromStats_Duration                       : 02:09:28.800000000
    FromStats_FrameCount                     : 728325
    FromStats_StreamSize                     : 1465389900

    Text #1
    ID                                       : 4
    Format                                   : PGS
    Muxing mode                              : zlib
    Codec ID                                 : S_HDMV/PGS
    Codec ID/Info                            : Picture based subtitle format used on BDs/HD-DVDs
    Language                                 : English
    Default                                  : No
    Forced                                   : No
    Statistics Tags Issue                    : mkvmerge v15.0.0 ('Duel with the Devil') 64-bit 2018-03-31 05:00:07 / mkvmerge v15.0.0 ('Duel with the Devil') 64-bit 2018-03-31 05:00:07 / UTC 2018-03-31T02:06:19Z
    FromStats_BitRate                        : 29703
    FromStats_Duration                       : 02:08:00.006000000
    FromStats_FrameCount                     : 2810
    FromStats_StreamSize                     : 28514934

    Text #2
    ID                                       : 5
    Format                                   : PGS
    Muxing mode                              : zlib
    Codec ID                                 : S_HDMV/PGS
    Codec ID/Info                            : Picture based subtitle format used on BDs/HD-DVDs
    Language                                 : Spanish
    Default                                  : No
    Forced                                   : No
    Statistics Tags Issue                    : mkvmerge v15.0.0 ('Duel with the Devil') 64-bit 2018-03-31 05:00:07 / mkvmerge v15.0.0 ('Duel with the Devil') 64-bit 2018-03-31 05:00:07 / UTC 2018-03-31T02:06:19Z
    FromStats_BitRate                        : 26885
    FromStats_Duration                       : 02:08:28.284000000
    FromStats_FrameCount                     : 2600
    FromStats_StreamSize                     : 25904976

    Menu
    00:00:00.000                             : :Chapter 1
    00:09:45.168                             : :Chapter 2
    00:19:20.868                             : :Chapter 3
    00:30:38.420                             : :Chapter 4
    00:40:29.761                             : :Chapter 5
    00:50:47.670                             : :Chapter 6
    01:02:01.676                             : :Chapter 7
    01:10:17.672                             : :Chapter 8
    01:20:05.676                             : :Chapter 9
    01:30:13.950                             : :Chapter 10
    01:38:48.256                             : :Chapter 11
    01:49:26.310                             : :Chapter 12
    02:00:31.683                             : :Chapter 13
    02:02:19.958                             : :Chapter 14

  • Peso: 5.06 GiB

Sinopsis

“Tan fuerte, tan cerca” nos relata la historia de Oskar Schell, un niño cuyo padre (Tom Hanks) muere en los atentados del 11 de septiembre de 2001. Entre los enseres del difunto se halla una llave que servirá para que el pequeño descubra por qué su progenitor se encontraba en las Torres Gemelas. Es entonces cuando inicia un viaje por la ciudad de Nueva York en busca de gentes, lugares y objetos relacionados con dicha pieza.

Ficha técnica

  • Titulo original: Extremely Loud & Incredibly Close
  • Fecha de lanzamiento: 24-12-2011 (United States of America)
  • Director: Stephen Daldry
  • Género: Drama, FULL 1080p Plateadas
  • Puntuación: 5.0 3 votos
  • Duración:
    2h 9m

Video trailer de la película

Enlaces de descarga

Rip de Bluray

Descargar Tan fuerte y tan cerca (2011) Full 1080p Latino




Aportes de DPeliculasHDmega la pass es:dpeliculashdmega.org Aportes de CinemaniaHD la pass es:cinemaniahdd.com
Guardado en : Drama , FULL 1080p Plateadas

Películas relacionadas

  • Ralph El Demoledor (2012) Full 1080p Latino

    2012
    Ralph El Demoledor (2012) Full 1080p Latino

    0.0 1h 41m 2012

    Durante décadas, Ralph ha vivido a la sombra de Repara-Félix Jr., el chico bueno de su videojuego....

    Director: Rob Dressel

    Género: Animación

    Actores: Will Deters

  • La jungla (2017) 1080p Latino

    2017
    La jungla (2017) 1080p Latino

    0.0 1h 55m 2017

    Cuenta la historia real de Yossi Ghinsberg, un joven aventurero que vivió para escribir un bestseller...

    Director: Greg McLean

    Género: 1080p Portada Negra

    Actores: Yasmin Kassim

  • V/H/S: (2014) Full 1080p Subtitulado

    2014
    V/H/S: (2014) Full 1080p Subtitulado

    4.2 1 h 21 min 2014

    Un camión está causando el caos en la calle, atropellando a todo aquel que se cruza en su camino. Mientras...

    Director: Todd Lincoln

    Género: FULL 1080p Plateadas

    Actores: Nick Blanco

  • V/H/S Las crónicas del miedo 2 (2013) Full 1080p Latino

    2013
    V/H/S Las crónicas del miedo 2 (2013) Full 1080p Latino

    4.3 1h 35m 2013

    Secuela de V/H/S (2012). Buscando a un estudiante desaparecido, dos investigadores privados irrumpen...

    Director: Timo Tjahjanto

    Género: FULL 1080p Plateadas

    Actores: Samantha Gracie

  • V/H/S Las crónicas del miedo (2012) Full 1080p Latino

    2012
    V/H/S Las crónicas del miedo (2012) Full 1080p Latino

    4.3 1 h 56 min 2012

    Un grupo de matones son contratados por un misterioso sujeto para que vayan a una casa abandonada y encuentren...

    Director: Tyler Gillett

    Género: FULL 1080p Plateadas

    Actores: Tyler Gillett

Comentarios 0