Spartacus: Dioses de la arena (2011) Precuela T.1 Full 1080p Latino

1.010 vistas
1 estrella2 estrellas3 estrellas4 estrellas5 estrellas (6 votos, promedio: 5,00 de 5)
Cargando…

Información de Spartacus: Dioses de la arena (2011) Precuela T.1 Full 1080p Latino

Datos de la película

  • Calidad: Full 1080p
  • Audio: Español Latino AC3 2.0 BLURAY - Ingles AC3 5.1 BLURAY
  • Subtitulos: Español Latino PGS - Ingles PGS
  • Resolución: 1920x1080p
  • Formato: MKV
  • Codec: H.264
  • Encoder: Dracarys
  • Mediainfo: Clic para Mostrar Datos Ver
  • Format                                   : Matroska
    Format version                           : Version 4 / Version 2
    File size                                : 3.71 GiB
    Duration                                 : 58 min 46 s
    Overall bit rate                         : 9 034 kb/s
    Movie name                               : CinemaniaHDD.net
    Encoded date                             : UTC 2018-09-05 01:48:02 / UTC 2018-09-03T05:07:53Z
    Writing application                      : mkvmerge v15.0.0 ('Duel with the Devil') 64-bit
    Writing library                          : libebml v1.3.5 + libmatroska v1.4.5 / Lavf57.7.2

    Video
    ID                                       : 1
    Format                                   : AVC
    Format/Info                              : Advanced Video Codec
    Format profile                           : High@L4.1
    Format settings                          : CABAC / 4 Ref Frames
    Format settings, CABAC                   : Yes
    Format settings, RefFrames               : 4 frames
    Codec ID                                 : V_MPEG4/ISO/AVC
    Duration                                 : 58 min 46 s
    Bit rate                                 : 8 022 kb/s
    Width                                    : 1 920 pixels
    Height                                   : 1 080 pixels
    Display aspect ratio                     : 16:9
    Frame rate mode                          : Constant
    Frame rate                               : 23.976 (24000/1001) FPS
    Color space                              : YUV
    Chroma subsampling                       : 4:2:0
    Bit depth                                : 8 bits
    Scan type                                : Progressive
    Bits/(Pixel*Frame)                       : 0.161
    Stream size                              : 3.29 GiB (89%)
    Title                                    : Spartacus Dioses de la arena (2011) Precuela-E03 [Paterfamilias] Full 1080p Latino
    Default                                  : Yes
    Forced                                   : No
    Color range                              : Limited
    Color primaries                          : BT.709
    Transfer characteristics                 : BT.709
    Matrix coefficients                      : BT.709
    Statistics Tags Issue                    : mkvmerge v15.0.0 ('Duel with the Devil') 64-bit 2018-09-05 01:48:02 / mkvmerge v15.0.0 ('Duel with the Devil') 64-bit 2018-09-05 01:48:02 / UTC 2018-09-03T05:07:53Z
    FromStats_BitRate                        : 8174530
    FromStats_Duration                       : 00:58:46.243000000
    FromStats_FrameCount                     : 84526
    FromStats_StreamSize                     : 3603172691

    Audio #1
    ID                                       : 2
    Format                                   : AC-3
    Format/Info                              : Audio Coding 3
    Format settings, Endianness              : Big
    Codec ID                                 : A_AC3
    Duration                                 : 58 min 46 s
    Bit rate mode                            : Constant
    Bit rate                                 : 192 kb/s
    Channel(s)                               : 2 channels
    Channel positions                        : Front: L R
    Sampling rate                            : 48.0 kHz
    Frame rate                               : 31.250 FPS (1536 SPF)
    Bit depth                                : 16 bits
    Compression mode                         : Lossy
    Delay relative to video                  : 8 ms
    Stream size                              : 80.7 MiB (2%)
    Language                                 : Spanish
    Service kind                             : Complete Main
    Default                                  : Yes
    Forced                                   : No
    Statistics Tags Issue                    : mkvmerge v15.0.0 ('Duel with the Devil') 64-bit 2018-09-05 01:48:02 / mkvmerge v15.0.0 ('Duel with the Devil') 64-bit 2018-09-05 01:48:02 / UTC 2018-09-03T05:07:53Z
    FromStats_BitRate                        : 191956
    FromStats_Duration                       : 00:58:46.308000000
    FromStats_FrameCount                     : 110172
    FromStats_StreamSize                     : 84612096

    Audio #2
    ID                                       : 3
    Format                                   : AC-3
    Format/Info                              : Audio Coding 3
    Format settings, Endianness              : Big
    Codec ID                                 : A_AC3
    Duration                                 : 58 min 46 s
    Bit rate mode                            : Constant
    Bit rate                                 : 640 kb/s
    Channel(s)                               : 6 channels
    Channel positions                        : Front: L C R, Side: L R, LFE
    Sampling rate                            : 48.0 kHz
    Frame rate                               : 31.250 FPS (1536 SPF)
    Bit depth                                : 16 bits
    Compression mode                         : Lossy
    Delay relative to video                  : 8 ms
    Stream size                              : 269 MiB (7%)
    Language                                 : English
    Service kind                             : Complete Main
    Default                                  : No
    Forced                                   : No
    Statistics Tags Issue                    : mkvmerge v15.0.0 ('Duel with the Devil') 64-bit 2018-09-05 01:48:02 / mkvmerge v15.0.0 ('Duel with the Devil') 64-bit 2018-09-05 01:48:02 / UTC 2018-09-03T05:07:53Z
    FromStats_BitRate                        : 639854
    FromStats_Duration                       : 00:58:46.308000000
    FromStats_FrameCount                     : 110172
    FromStats_StreamSize                     : 282040320

    Text #1
    ID                                       : 4
    Format                                   : PGS
    Muxing mode                              : zlib
    Codec ID                                 : S_HDMV/PGS
    Codec ID/Info                            : Picture based subtitle format used on BDs/HD-DVDs
    Language                                 : English
    Default                                  : No
    Forced                                   : No
    Statistics Tags Issue                    : mkvmerge v15.0.0 ('Duel with the Devil') 64-bit 2018-09-05 01:48:02 / mkvmerge v15.0.0 ('Duel with the Devil') 64-bit 2018-09-05 01:48:02 / UTC 2018-09-03T05:07:53Z
    FromStats_BitRate                        : 51636
    FromStats_Duration                       : 00:56:48.933000000
    FromStats_FrameCount                     : 1509
    FromStats_StreamSize                     : 22003309

    Text #2
    ID                                       : 5
    Format                                   : PGS
    Muxing mode                              : zlib
    Codec ID                                 : S_HDMV/PGS
    Codec ID/Info                            : Picture based subtitle format used on BDs/HD-DVDs
    Language                                 : Spanish
    Default                                  : No
    Forced                                   : No
    Statistics Tags Issue                    : mkvmerge v15.0.0 ('Duel with the Devil') 64-bit 2018-09-05 01:48:02 / mkvmerge v15.0.0 ('Duel with the Devil') 64-bit 2018-09-05 01:48:02 / UTC 2018-09-03T05:07:53Z
    FromStats_BitRate                        : 47945
    FromStats_Duration                       : 00:56:31.930000000
    FromStats_FrameCount                     : 1286
    FromStats_StreamSize                     : 20328386

    Menu
    00:00:00.000                             : :Chapter 2
    00:12:15.052                             : :Chapter 3
    00:26:41.466                             : :Chapter 4
    00:36:41.856                             : :Chapter 5
    00:54:19.643                             : :Chapter 6
    00:56:53.020                             : :Chapter 7

  • Peso: 3.70 GiB X Capitulo Aproximadamente

Sinopsis

Mini-serie que sirve como precuela de la exitosa ‘Spartacus: Sangre y arena’ de manos también de Steven S. DeKnight (‘Buffy, la cazavampiros’, ‘Angel’) que cuenta la historia de Lentulus Batiatus (John Hannah) y su esposa Lucrecia (Lucy Lawless) y sus ambiciones antes de la llegada de Espartaco.

Esta producción nos sitúa en la ciudad de Capua para conocer más acerca de la sangrienta historia de la Casa Batiatus. Quintus Lentulus Batiatus se convierte en ‘lanista’ -gerente- de la mediocre escuela de gladiadores de su padre con el objetivo de obtener reconocimiento y grandeza para su casa. Junto a él, su bella esposa siempre le ayudará a conseguir sus fines sin importar los medios.

Para conseguir este esplendor que Batiatus ansía, pondrá toda su fortuna y esfuerzos en el hombre que espera le dé fama y gloria a la Casa Batiatus, su mejor gladiador, el celta Gannicus (Dustin Clare). Un hábil luchador que siempre blande sus espadas en la arena como si fuese su última vez. Sin embargo, aquellos que se oponen a Batiatus y sus futuros campeones de Capua intentarán todo tipo de argucias para la ruina del ‘lanista’.

Ficha técnica

Video trailer de la película

Enlaces de descarga

Rip de Bluray

Descargar Spartacus: Dioses de la arena (2011) Precuela T.1 Full 1080p Latino




Aportes de DPeliculasHDmega la pass es:dpeliculashdmega.org Aportes de CinemaniaHD la pass es:cinemaniahdd.com
Guardado en : Drama , FULL 1080p Plateadas , Series

Películas relacionadas

  • Fahrenheit 451 (2018) 1080p Latino

    2018
    Fahrenheit 451 (2018) 1080p Latino

    0.0 1h 36m 2018

    Michael B. Jordan y Michael Shannon protagonizan esta adaptación de HBO de la clásica novela distópica...

    Director: Ramin Bahrani

    Género: 1080p Portada Negra

    Actores: Tim Post

  • Mary Poppins (1964) Full 1080p Latino

    1964
    Mary Poppins (1964) Full 1080p Latino

    5.0 2h 19m 1964

    Reinado de Eduardo VII (1901-1910). Una familia inglesa formada por un padre banquero, una madre sufraguista...

    Director: Robert Stevenson

    Género: Comedia

    Actores: Reta Shaw

  • Siberia (2018) Full 1080p Subtitulado

    2018
    Siberia (2018) Full 1080p Subtitulado

    0.0 1h 44m 2018

    Cuando el socio ruso de un tratante de diamantes norteamericano (Keanu Reaves) desaparece, éste viaja...

    Director: Matthew Ross

    Género: Crimen

    Actores: Vladimir Shklyar

  • Los elegidos de la gloria (1983) Full 1080p Latino

    1983
    Los elegidos de la gloria (1983) Full 1080p Latino

    5.0 3 h 12 min 1983

    El libro de Tom Wolfe sobre la historia del programa espacial de los Estados Unidos, se lee como si fuera...

    Director: Philip Kaufman

    Género: Drama

    Actores: William Russ

Comentarios 1