Son como niños (2010) Full 1080p Latino

872 vistas
1 estrella2 estrellas3 estrellas4 estrellas5 estrellas (8 votos, promedio: 5,00 de 5)
Cargando…

Información de Son como niños (2010) Full 1080p Latino

Datos de la película

  • Calidad: Full 1080p
  • Audio: Español Latino AC3 5.1 BLURAY - Ingles AC3 5.1 BLURAY
  • Subtitulos: Español Latino PGS - Ingles PGS
  • Resolución: 1920x1080p
  • Formato: MKV
  • Codec: H.264
  • Encoder: Dracarys
  • Mediainfo: Clic para Mostrar Datos Ver
  • Format                                   : Matroska
    Format version                           : Version 4 / Version 2
    File size                                : 5.34 GiB
    Duration                                 : 1 h 42 min
    Overall bit rate                         : 7 473 kb/s
    Movie name                               : CinemaniaHDD.com
    Encoded date                             : UTC 2018-04-06 01:29:28 / UTC 2018-03-31T14:43:48Z
    Writing application                      : mkvmerge v15.0.0 ('Duel with the Devil') 64-bit
    Writing library                          : libebml v1.3.5 + libmatroska v1.4.5 / Lavf57.7.2

    Video
    ID                                       : 1
    Format                                   : AVC
    Format/Info                              : Advanced Video Codec
    Format profile                           : High@L4.1
    Format settings                          : CABAC / 4 Ref Frames
    Format settings, CABAC                   : Yes
    Format settings, RefFrames               : 4 frames
    Codec ID                                 : V_MPEG4/ISO/AVC
    Duration                                 : 1 h 42 min
    Bit rate                                 : 5 367 kb/s
    Width                                    : 1 920 pixels
    Height                                   : 1 080 pixels
    Display aspect ratio                     : 16:9
    Frame rate mode                          : Constant
    Frame rate                               : 23.976 (24000/1001) FPS
    Color space                              : YUV
    Chroma subsampling                       : 4:2:0
    Bit depth                                : 8 bits
    Scan type                                : Progressive
    Bits/(Pixel*Frame)                       : 0.108
    Stream size                              : 3.84 GiB (72%)
    Title                                    : Son como niños (2010) Full 1080p Latino
    Writing library                          : x264 core 148 r2708 86b7198
    Encoding settings                        : cabac=1 / ref=4 / deblock=1:0:0 / analyse=0x3:0x133 / me=esa / subme=9 / psy=1 / psy_rd=1.00:0.00 / mixed_ref=1 / me_range=16 / chroma_me=1 / trellis=2 / 8x8dct=1 / cqm=0 / deadzone=21,11 / fast_pskip=1 / chroma_qp_offset=-2 / threads=34 / lookahead_threads=2 / sliced_threads=0 / nr=0 / decimate=1 / interlaced=0 / bluray_compat=0 / constrained_intra=0 / bframes=3 / b_pyramid=2 / b_adapt=2 / b_bias=0 / direct=3 / weightb=1 / open_gop=0 / weightp=2 / keyint=240 / keyint_min=24 / scenecut=40 / intra_refresh=0 / rc_lookahead=60 / rc=crf / mbtree=1 / crf=20.0 / qcomp=0.60 / qpmin=0 / qpmax=69 / qpstep=4 / vbv_maxrate=62500 / vbv_bufsize=78125 / crf_max=0.0 / nal_hrd=none / filler=0 / ip_ratio=1.40 / aq=1:1.00
    Language                                 : English
    Default                                  : Yes
    Forced                                   : No
    Color range                              : Limited
    Color primaries                          : BT.709
    Transfer characteristics                 : BT.709
    Matrix coefficients                      : BT.709
    Statistics Tags Issue                    : mkvmerge v15.0.0 ('Duel with the Devil') 64-bit 2018-04-06 01:29:28 / mkvmerge v15.0.0 ('Duel with the Devil') 64-bit 2018-04-06 01:29:28 / UTC 2018-03-31T14:43:48Z
    FromStats_BitRate                        : 5461342
    FromStats_Duration                       : 01:42:20.093000000
    FromStats_FrameCount                     : 147215
    FromStats_StreamSize                     : 4191643968

    Audio #1
    ID                                       : 2
    Format                                   : AC-3
    Format/Info                              : Audio Coding 3
    Format settings, Endianness              : Big
    Codec ID                                 : A_AC3
    Duration                                 : 1 h 42 min
    Bit rate mode                            : Constant
    Bit rate                                 : 448 kb/s
    Channel(s)                               : 6 channels
    Channel positions                        : Front: L C R, Side: L R, LFE
    Sampling rate                            : 48.0 kHz
    Frame rate                               : 31.250 FPS (1536 SPF)
    Bit depth                                : 16 bits
    Compression mode                         : Lossy
    Stream size                              : 328 MiB (6%)
    Language                                 : Spanish
    Service kind                             : Complete Main
    Default                                  : Yes
    Forced                                   : No
    Statistics Tags Issue                    : mkvmerge v15.0.0 ('Duel with the Devil') 64-bit 2018-04-06 01:29:28 / mkvmerge v15.0.0 ('Duel with the Devil') 64-bit 2018-04-06 01:29:28 / UTC 2018-03-31T14:43:48Z
    FromStats_BitRate                        : 448000
    FromStats_Duration                       : 01:42:18.976000000
    FromStats_FrameCount                     : 191843
    FromStats_StreamSize                     : 343782656

    Audio #2
    ID                                       : 3
    Format                                   : DTS
    Format/Info                              : Digital Theater Systems
    Mode                                     : 16
    Format settings, Endianness              : Big
    Codec ID                                 : A_DTS
    Duration                                 : 1 h 42 min
    Bit rate mode                            : Constant
    Bit rate                                 : 1 509 kb/s
    Channel(s)                               : 6 channels
    Channel positions                        : Front: L C R, Side: L R, LFE
    Sampling rate                            : 48.0 kHz
    Frame rate                               : 93.750 FPS (512 SPF)
    Bit depth                                : 24 bits
    Compression mode                         : Lossy
    Delay relative to video                  : 11 ms
    Stream size                              : 1.08 GiB (20%)
    Language                                 : English
    Default                                  : No
    Forced                                   : No
    Statistics Tags Issue                    : mkvmerge v15.0.0 ('Duel with the Devil') 64-bit 2018-04-06 01:29:28 / mkvmerge v15.0.0 ('Duel with the Devil') 64-bit 2018-04-06 01:29:28 / UTC 2018-03-31T14:43:48Z
    FromStats_BitRate                        : 1509000
    FromStats_Duration                       : 01:42:20.117000000
    FromStats_FrameCount                     : 575636
    FromStats_StreamSize                     : 1158179632

    Text #1
    ID                                       : 4
    Format                                   : PGS
    Muxing mode                              : zlib
    Codec ID                                 : S_HDMV/PGS
    Codec ID/Info                            : Picture based subtitle format used on BDs/HD-DVDs
    Language                                 : English
    Default                                  : No
    Forced                                   : No
    Statistics Tags Issue                    : mkvmerge v15.0.0 ('Duel with the Devil') 64-bit 2018-04-06 01:29:28 / mkvmerge v15.0.0 ('Duel with the Devil') 64-bit 2018-04-06 01:29:28 / UTC 2018-03-31T14:43:48Z
    FromStats_BitRate                        : 51238
    FromStats_Duration                       : 01:35:05.867000000
    FromStats_FrameCount                     : 3501
    FromStats_StreamSize                     : 36545005

    Text #2
    ID                                       : 5
    Format                                   : PGS
    Muxing mode                              : zlib
    Codec ID                                 : S_HDMV/PGS
    Codec ID/Info                            : Picture based subtitle format used on BDs/HD-DVDs
    Language                                 : Spanish
    Default                                  : No
    Forced                                   : No
    Statistics Tags Issue                    : mkvmerge v15.0.0 ('Duel with the Devil') 64-bit 2018-04-06 01:29:28 / mkvmerge v15.0.0 ('Duel with the Devil') 64-bit 2018-04-06 01:29:28 / UTC 2018-03-31T14:43:48Z
    FromStats_BitRate                        : 73041
    FromStats_Duration                       : 01:35:30.147000000
    FromStats_FrameCount                     : 3520
    FromStats_StreamSize                     : 52317492

    Menu
    00:00:00.000                             : :Chapter 1
    00:06:12.831                             : :Chapter 2
    00:15:50.992                             : :Chapter 3
    00:20:51.417                             : :Chapter 4
    00:25:04.503                             : :Chapter 5
    00:28:42.721                             : :Chapter 6
    00:37:09.769                             : :Chapter 7
    00:42:57.033                             : :Chapter 8
    00:50:19.391                             : :Chapter 9
    00:54:29.516                             : :Chapter 10
    01:00:19.116                             : :Chapter 11
    01:06:52.342                             : :Chapter 12
    01:12:04.445                             : :Chapter 13
    01:17:28.978                             : :Chapter 14
    01:24:11.296                             : :Chapter 15
    01:31:01.247                             : :Chapter 16

  • Peso: 5.34 GiB

Sinopsis

Después de muchos años, su antiguo entrenador de basquet muere y cincos amigos deciden pasar un fin de semanas -ahora con sus respectivas familias- en la casa donde celebraron, antaño, el campeonato.

Ficha técnica

Video trailer de la película

Enlaces de descarga

Rip de Bluray

Descargar Son como niños (2010) Full 1080p Latino




Aportes de DPeliculasHDmega la pass es:dpeliculashdmega.org Aportes de CinemaniaHD la pass es:cinemaniahdd.com
Guardado en : Comedia , FULL 1080p Plateadas

Películas relacionadas

  • ¡Hombre al agua! (2018) 1080p Latino

    2018
    ¡Hombre al agua! (2018) 1080p Latino

    5.0 1 h 52 min 2018

    Kate es una madre soltera, trabajadora, madre de tres hijas, contratada para limpiar un yate de lujo...

    Director: Rob Greenberg

    Género: 1080p Portada Negra

    Actores: Toby Hargrave

  • El alma de la fiesta (2018) 1080p Latino

    2018
    El alma de la fiesta (2018) 1080p Latino

    0.0 1 h 44 min 2018

    Después de haber sido abandonada por su esposo, Deanna, ama de casa, decide darle un giro a su vida...

    Director: Ben Falcone

    Género: Comedia

    Actores: Yani Simone

  • Tully (2018) 1080p Latino

    2018
    Tully (2018) 1080p Latino

    0.0 1 h 35 min 2018

    La historia de una mujer con tres hijos que, incapaz de lidiar con su bebé recién nacido, contrata...

    Director: Jason Reitman

    Género: Comedia

    Actores: Stormy Ent

  • Si solo pudiera imaginar (2018) Full 1080p Latino

    2018
    Si solo pudiera imaginar (2018) Full 1080p Latino

    5.0 1 h 50 min 2018

    La historia real de la aclamada canción "I Can Only Imagine", la canción cristiana contemporánea más...

    Director: Jon Erwin

    Género: Drama

    Actores: Trace Adkins

  • El padre del año (2018) WEB-DL 1080p Latino

    2018
    El padre del año (2018) WEB-DL 1080p Latino

    0.0 1h 34m 2018

    Dos universitarios recién graduados discuten borrachos sobre quién de sus padres ganaría una pelea....

    Director: Tyler Spindel

    Género: Comedia

    Actores: Ralph Ayala

Comentarios 0